<?xml version="1.0" standalone="no"?>
<!DOCTYPE svg PUBLIC "-//W3C//DTD SVG 1.1//EN" "http://www.w3.org/Graphics/SVG/1.1/DTD/svg11.dtd" >
<svg xmlns="http://www.w3.org/2000/svg" xmlns:xlink="http://www.w3.org/1999/xlink" version="1.1">
<metadata>
Created by FontForge 20201107 at Mon Feb 19 12:00:31 2024
 By 
Copyright (c) 2020 The Inter Project Authors
</metadata>
<defs>
<font id="Inter-Bold" horiz-adv-x="0" >
  <font-face 
    font-family="Inter"
    font-weight="700"
    font-stretch="normal"
    units-per-em="2048"
    panose-1="2 0 8 3 0 0 0 2 0 4"
    ascent="1638"
    descent="-410"
    x-height="1117"
    cap-height="1489"
    bbox="-1730.02 -655 5290 2280"
    underline-thickness="195"
    underline-position="-413"
    unicode-range="U+0020-1F852"
  />
<missing-glyph horiz-adv-x="2149" 
d="M212 -465v372h1726v-372h-1726zM212 47v372h1726v-372h-1726zM212 559v372h1726v-372h-1726zM212 1071v372h1726v-372h-1726zM212 1583v372h1726v-372h-1726z" />
    <glyph glyph-name=".notdef" horiz-adv-x="2149" 
d="M212 -465v372h1726v-372h-1726zM212 47v372h1726v-372h-1726zM212 559v372h1726v-372h-1726zM212 1071v372h1726v-372h-1726zM212 1583v372h1726v-372h-1726z" />
    <glyph glyph-name=".null" 
 />
    <glyph glyph-name="nonmarkingreturn" horiz-adv-x="682" 
 />
    <glyph glyph-name="uni0020" unicode=" " horiz-adv-x="474" 
 />
    <glyph glyph-name="uni0021" unicode="!" horiz-adv-x="664" 
d="M494 1489l-29 -1042h-266l-29 1042h324zM332 -19q-72 0 -123.5 51t-50.5 124q-1 71 50.5 122t123.5 51q70 0 122 -51t53 -122q-1 -72 -53 -123.5t-122 -51.5z" />
    <glyph glyph-name="uni0022" unicode="&#x22;" horiz-adv-x="803" 
d="M323 1489v-565h-221v565h221zM699 1489v-565h-221v565h221z" />
    <glyph glyph-name="uni0023" unicode="#" horiz-adv-x="1330" 
d="M688 0l60 369h-291l-60 -369h-233l61 369h-204l39 233h203l47 285h-204l39 233h203l61 369h232l-60 -369h291l60 369h233l-60 -369h204l-39 -233h-204l-46 -285h203l-38 -233h-204l-60 -369h-233zM496 602h291l46 285h-290z" />
    <glyph glyph-name="uni0024" unicode="$" horiz-adv-x="1341" 
d="M621 -186v166q-250 14 -392.5 139t-147.5 349h305q7 -96 69.5 -153t165.5 -69v383l-94 24q-407 97 -406 406q0 124 63.5 222.5t177 157t259.5 69.5v168h119v-168q224 -15 360 -137t139 -310h-302q-8 76 -59 123.5t-138 58.5v-362l73 -18q208 -46 327 -153.5t120 -284.5
q-1 -194 -138 -313t-382 -132v-166h-119zM740 247q93 13 147 61t55 118q-1 64 -50.5 104.5t-151.5 68.5v-352zM621 911v331q-85 -12 -131 -55.5t-46 -106.5q-3 -114 177 -169z" />
    <glyph glyph-name="uni0025" unicode="%" horiz-adv-x="1760" 
d="M936 279v79q0 140 88 235.5t240 95.5q154 0 241 -94.5t87 -236.5v-79q0 -141 -88 -236t-240 -95q-154 0 -241 95t-87 236zM172 1132v78q0 141 88 236t239 95q155 0 242 -94.5t87 -236.5v-78q0 -141 -88 -235.5t-241 -94.5t-240 94.5t-87 235.5zM268 0l1024 1489h190
l-1024 -1489h-190zM1148 358v-79q0 -60 27.5 -101.5t88.5 -41.5t88 41t27 102v79q0 145 -115 145q-60 0 -88 -42t-28 -103zM385 1210v-78q0 -61 27 -102.5t87 -41.5q61 0 88.5 41.5t27.5 102.5v78q0 62 -26.5 103.5t-89.5 41.5q-60 0 -87 -42.5t-27 -102.5z" />
    <glyph glyph-name="uni0026" unicode="&#x26;" horiz-adv-x="1380" 
d="M580 -22q-227 0 -362.5 118.5t-135.5 299.5q0 120 67.5 208t203.5 181q-141 179 -141 342q0 164 113 273t293 109q174 0 280.5 -101.5t106.5 -249.5q0 -201 -198 -344l-87 -63l246 -282q63 118 63 258h257q0 -291 -135 -470l224 -257h-323l-91 100q-156 -122 -381 -122z
M794 287l-282 314l-9 -6q-120 -88 -120 -182q0 -81 59 -133.5t154 -52.5q101 0 198 60zM571 928l78 51q108 69 108 161q0 48 -37.5 84.5t-99.5 35.5q-64 -1 -103.5 -41t-39.5 -98q0 -43 23.5 -88.5t70.5 -104.5z" />
    <glyph glyph-name="uni0027" unicode="'" horiz-adv-x="427" 
d="M323 1489v-565h-221v565h221z" />
    <glyph glyph-name="uni0028" unicode="(" horiz-adv-x="837" 
d="M192 597q0 537 294 920h296q-115 -145 -191.5 -404.5t-76.5 -515.5t76.5 -515.5t191.5 -405.5h-296q-294 383 -294 921z" />
    <glyph glyph-name="uni0029" unicode=")" horiz-adv-x="837" 
d="M646 597q0 -537 -294 -920h-296q115 145 191.5 404.5t76.5 515.5t-76.5 515.5t-191.5 405.5h296q294 -383 294 -921z" />
    <glyph glyph-name="uni002A" unicode="*" horiz-adv-x="1156" 
d="M481 652l18 281l-236 -158l-97 172l254 124l-254 123l97 172l236 -158l-18 281h195l-19 -281l236 158l98 -172l-254 -123l254 -124l-98 -172l-236 158l19 -281h-195z" />
    <glyph glyph-name="uni002B" unicode="+" horiz-adv-x="1392" 
d="M566 81v384h-385v261h385v385h260v-385h385v-261h-385v-384h-260z" />
    <glyph glyph-name="uni002C" unicode="," horiz-adv-x="620" 
d="M460 204l-8 -80q-20 -194 -137 -488h-201q1 3 13 50.5t17.5 71t17 77.5t18 93.5t13 93t8.5 100.5l3 82h256z" />
    <glyph glyph-name="uni002D" unicode="-" horiz-adv-x="960" 
d="M820 735v-246h-680v246h680z" />
    <glyph glyph-name="uni002E" unicode="." horiz-adv-x="609" 
d="M305 -19q-72 0 -124 51.5t-51 123.5q-1 71 51 122t124 51q70 0 121.5 -51t52.5 -122q-1 -72 -52.5 -123.5t-121.5 -51.5z" />
    <glyph glyph-name="uni002F" unicode="/" horiz-adv-x="798" 
d="M772 1559l-480 -1783h-267l480 1783h267z" />
    <glyph glyph-name="uni0030" unicode="0" horiz-adv-x="1409" 
d="M705 -33q-282 1 -442.5 206t-159.5 570q1 364 160.5 565.5t441.5 201.5t442 -202t159 -565q-1 -367 -160 -571.5t-441 -204.5zM705 228q131 0 206 131.5t74 383.5q0 248 -75 378.5t-205 130.5t-205 -130.5t-76 -378.5q-1 -252 74.5 -383.5t206.5 -131.5z" />
    <glyph glyph-name="uni0031" unicode="1" horiz-adv-x="1002" 
d="M769 1489v-1489h-315v1191h-9l-341 -214v279l369 233h296z" />
    <glyph glyph-name="uni0032" unicode="2" horiz-adv-x="1290" 
d="M121 0v227l530 491q114 110 161 178.5t47 151.5q0 97 -64 154.5t-164 57.5q-103 0 -165 -61.5t-61 -167.5h-299q-1 218 145 348.5t382 130.5q238 0 384 -123t146 -318q0 -130 -82 -256.5t-306 -331.5l-218 -213v-11h626v-257h-1062z" />
    <glyph glyph-name="uni0033" unicode="3" horiz-adv-x="1350" 
d="M671 -20q-245 0 -403 123t-162 318h317q4 -81 74 -131.5t175 -50.5q108 0 177 55.5t68 144.5q1 91 -73.5 148t-199.5 57h-139v231h139q108 0 175.5 54.5t66.5 141.5q1 84 -58 136.5t-154 52.5q-98 0 -165.5 -52t-70.5 -135h-302q2 126 73 226.5t193.5 155.5t273.5 55
q228 0 371 -120.5t142 -299.5q1 -123 -76.5 -207.5t-204.5 -107.5v-11q162 -21 249.5 -113t86.5 -233q1 -191 -160.5 -314.5t-412.5 -123.5z" />
    <glyph glyph-name="uni0034" unicode="4" horiz-adv-x="1388" 
d="M98 262v248l622 979h394v-975h185v-252h-185v-262h-301v262h-715zM819 514v632h-12l-392 -620v-12h404z" />
    <glyph glyph-name="uni0035" unicode="5" horiz-adv-x="1320" 
d="M665 -20q-152 0 -274 56.5t-192 157t-73 227.5h305q5 -86 72 -140t162 -54q111 0 182 73t71 189t-72.5 190t-185.5 75q-67 0 -127.5 -27t-94.5 -73l-280 50l70 785h911v-257h-651l-39 -373h9q40 56 120 92t176 36q202 0 335 -138.5t132 -351.5q1 -227 -153.5 -372
t-402.5 -145z" />
    <glyph glyph-name="uni0036" unicode="6" horiz-adv-x="1352" 
d="M692 -20q-95 0 -179.5 23.5t-162 78t-133 136.5t-88 208t-32.5 285q1 373 164.5 586t441.5 213q218 0 363 -124t168 -313h-310q-18 78 -77 122.5t-144 44.5q-143 0 -219.5 -125t-77.5 -346h10q50 98 150.5 154.5t224.5 56.5q198 0 328.5 -136t129.5 -345
q1 -228 -154 -374t-403 -145zM691 227q109 0 181.5 75.5t71.5 187.5q1 111 -71 186.5t-180 75.5t-181 -76.5t-74 -186.5q0 -110 72.5 -186t180.5 -76z" />
    <glyph glyph-name="uni0037" unicode="7" horiz-adv-x="1218" 
d="M180 0l617 1222v10h-719v257h1045v-261l-618 -1228h-325z" />
    <glyph glyph-name="uni0038" unicode="8" horiz-adv-x="1353" 
d="M676 -20q-251 0 -414.5 120t-162.5 301q-1 138 92 241.5t231 126.5v10q-119 24 -194 116t-74 214q-1 173 147.5 287t374.5 114t374 -114t149 -287q-1 -123 -75.5 -214.5t-191.5 -115.5v-10q136 -23 229 -126.5t94 -241.5q-1 -181 -164.5 -301t-414.5 -120zM676 211
q112 0 181.5 59.5t69.5 154.5q0 96 -71.5 159t-179.5 63q-109 0 -179.5 -62.5t-70.5 -159.5q0 -95 69 -154.5t181 -59.5zM676 876q94 0 155 56t61 144q0 87 -60.5 142t-155.5 55t-155 -55t-60 -142q0 -88 60 -144t155 -56z" />
    <glyph glyph-name="uni0039" unicode="9" horiz-adv-x="1352" 
d="M660 1510q95 0 179.5 -23.5t161.5 -78t132.5 -136t88.5 -207t33 -282.5q1 -376 -163 -589.5t-443 -213.5q-219 0 -364 124t-167 316h310q18 -81 76.5 -126t144.5 -45q144 0 220 125.5t77 349.5h-10q-49 -98 -150 -154t-225 -56q-198 0 -327.5 135.5t-130.5 343.5
q0 149 69 266.5t196.5 184t291.5 66.5zM662 1263q-109 0 -181.5 -75.5t-71.5 -185.5t71.5 -184.5t178.5 -74.5t182.5 76t73.5 184t-73.5 184t-179.5 76z" />
    <glyph glyph-name="uni003A" unicode=":" horiz-adv-x="609" 
d="M305 763q-72 0 -124 51t-51 123q-1 71 51 122.5t124 51.5q70 0 121.5 -51.5t52.5 -122.5q-1 -72 -52.5 -123t-121.5 -51zM305 -19q-72 0 -124 51.5t-51 123.5q-1 71 51 122t124 51q70 0 121.5 -51t52.5 -122q-1 -72 -52.5 -123.5t-121.5 -51.5z" />
    <glyph glyph-name="uni003B" unicode=";" horiz-adv-x="620" 
d="M460 204l-8 -80q-20 -194 -137 -488h-201q1 3 13 50.5t17.5 71t17 77.5t18 93.5t13 93t8.5 100.5l3 82h256zM331 763q-72 0 -124 51t-51 123q-1 71 51 122.5t124 51.5q70 0 121.5 -51.5t52.5 -122.5q-1 -72 -52.5 -123t-121.5 -51z" />
    <glyph glyph-name="uni003C" unicode="&#x3c;" horiz-adv-x="1392" 
d="M184 468v256l1024 451v-295l-692 -278v-13l692 -278v-294z" />
    <glyph glyph-name="uni003D" unicode="=" horiz-adv-x="1392" 
d="M193 225v259h1005v-259h-1005zM193 708v259h1005v-259h-1005z" />
    <glyph glyph-name="uni003E" unicode="&#x3e;" horiz-adv-x="1392" 
d="M1208 468l-1024 -451v294l692 278v13l-692 278v295l1024 -451v-256z" />
    <glyph glyph-name="uni003F" unicode="?" horiz-adv-x="1152" 
d="M390 447v24q0 94 12 160t39 112.5t58 76t82 61.5q76 49 117.5 99t41.5 116q0 74 -51.5 120.5t-126.5 46.5q-76 0 -130 -48.5t-57 -133.5h-297q3 141 70.5 239.5t173.5 144t242 45.5q221 0 357 -107.5t136 -295.5q0 -122 -57.5 -208t-166.5 -151q-90 -54 -128.5 -114
t-39.5 -163v-24h-275zM533 -19q-72 0 -123.5 51t-50.5 124q-1 71 50.5 122t123.5 51q70 0 122 -51t53 -122q-1 -72 -53 -123.5t-122 -51.5z" />
    <glyph glyph-name="uni0040" unicode="@" horiz-adv-x="2110" 
d="M1099 -429q-464 0 -719 247t-256 693q1 293 115.5 511.5t337.5 339.5t531 121q213 0 387 -64t290.5 -179.5t179.5 -277t63 -354.5q0 -137 -24 -246.5t-74.5 -194t-135.5 -133t-200 -54.5q-223 -16 -251 157h-9q-26 -67 -126 -111t-222 -37q-183 10 -304 147t-122 383
q0 121 35.5 219t95 160t129 98.5t145.5 47.5q117 18 220 -15t123 -84h10v81h227v-710q1 -51 22.5 -78t59.5 -27q153 0 152 414q0 133 -36.5 240t-99 177.5t-150 118t-184 68t-204.5 20.5q-142 0 -260.5 -36t-203 -101t-143 -156t-87 -201t-28.5 -236q1 -345 189.5 -528
t543.5 -183q115 0 229 23t183 51l72 -211q-72 -41 -212 -70.5t-289 -29.5zM1065 228q130 0 185.5 74.5t53.5 227.5q-1 138 -54.5 205t-185.5 67q-119 0 -185.5 -74t-67.5 -200q0 -61 13.5 -112.5t42 -95t79 -68t119.5 -24.5z" />
    <glyph glyph-name="uni0041" unicode="A" horiz-adv-x="1531" 
d="M386 0h-337l514 1489h406l513 -1489h-337l-111 340h-537zM577 585h378l-183 564h-12z" />
    <glyph glyph-name="uni0042" unicode="B" horiz-adv-x="1353" 
d="M129 0v1489h597q240 0 367 -104t127 -277q0 -127 -74 -210t-195 -110v-15q134 -6 231 -104.5t97 -256.5q0 -184 -134.5 -298t-378.5 -114h-637zM444 257h257q128 0 190 49.5t62 136.5q0 93 -66.5 151.5t-178.5 58.5h-264v-396zM444 866h234q99 0 162 51t63 138
q0 82 -58 131t-161 49h-240v-369z" />
    <glyph glyph-name="uni0043" unicode="C" horiz-adv-x="1540" 
d="M1444 968h-319q-18 122 -104.5 192.5t-216.5 70.5q-175 0 -278 -128t-103 -358q0 -234 102.5 -360.5t276.5 -126.5q127 0 214 66.5t109 184.5l319 -1q-13 -104 -62.5 -198t-129.5 -168.5t-198 -118t-257 -43.5q-150 0 -277 52t-219.5 148t-145 241t-52.5 324t53 324.5
t146.5 241.5t220 147.5t274.5 51.5q263 0 440 -144t207 -398z" />
    <glyph glyph-name="uni0044" unicode="D" horiz-adv-x="1489" 
d="M657 0h-528v1489h533q337 0 530.5 -198t193.5 -545q0 -349 -194 -547.5t-535 -198.5zM444 270h200q214 0 321 115.5t107 360.5q0 244 -107 359t-320 115h-201v-950z" />
    <glyph glyph-name="uni0045" unicode="E" horiz-adv-x="1254" 
d="M129 0v1489h1004v-259h-689v-355h637v-260h-637v-355h692v-260h-1007z" />
    <glyph glyph-name="uni0046" unicode="F" horiz-adv-x="1197" 
d="M129 0v1489h987v-259h-672v-355h606v-260h-606v-615h-315z" />
    <glyph glyph-name="uni0047" unicode="G" horiz-adv-x="1557" 
d="M1117 1008q-30 106 -111 164.5t-201 58.5q-174 0 -278 -128t-104 -357q0 -231 103 -359.5t282 -128.5q156 0 246.5 81t93.5 221h-320v237h623v-188q0 -145 -48 -263.5t-133 -198.5t-204 -123.5t-259 -43.5q-318 0 -511 206.5t-193 556.5q0 177 53.5 323t147.5 242.5
t221.5 149t274.5 52.5q252 0 429 -140t208 -362h-320z" />
    <glyph glyph-name="uni0048" unicode="H" horiz-adv-x="1528" 
d="M129 0v1489h315v-614h640v614h314v-1489h-314v615h-640v-615h-315z" />
    <glyph glyph-name="uni0049" unicode="I" horiz-adv-x="574" 
d="M444 1489v-1489h-315v1489h315z" />
    <glyph glyph-name="uni004A" unicode="J" horiz-adv-x="1167" 
d="M726 1489h311v-1038q-1 -215 -140.5 -343t-367.5 -128q-103 0 -189.5 27.5t-152.5 80.5t-102.5 137.5t-36.5 193.5h313q1 -88 51 -137.5t133 -49.5q87 0 133.5 56t47.5 163v1038z" />
    <glyph glyph-name="uni004B" unicode="K" horiz-adv-x="1412" 
d="M129 0v1489h315v-656h20l536 656h377l-552 -666l559 -823h-377l-408 612l-155 -189v-423h-315z" />
    <glyph glyph-name="uni004C" unicode="L" horiz-adv-x="1162" 
d="M129 0v1489h315v-1229h639v-260h-954z" />
    <glyph glyph-name="uni004D" unicode="M" horiz-adv-x="1873" 
d="M129 1489h389l410 -1000h17l411 1000h388v-1489h-305v969h-13l-385 -962h-208l-386 966h-12v-973h-306v1489z" />
    <glyph glyph-name="uni004E" unicode="N" horiz-adv-x="1505" 
d="M1375 1489v-1489h-272l-648 937h-11v-937h-315v1489h277l643 -936h13v936h313z" />
    <glyph glyph-name="uni004F" unicode="O" horiz-adv-x="1601" 
d="M1498 745q0 -179 -53.5 -324.5t-147 -241.5t-221 -147.5t-275.5 -51.5q-149 0 -276.5 52t-221.5 148t-147 241.5t-53 323.5q0 179 53 324.5t147 241.5t221.5 147.5t276.5 51.5q148 0 275.5 -51.5t221 -147.5t147 -241.5t53.5 -324.5zM1179 745q0 233 -102 359.5
t-276 126.5q-175 0 -276.5 -126.5t-101.5 -359.5t101.5 -360t276.5 -127q174 0 276 127t102 360z" />
    <glyph glyph-name="uni0050" unicode="P" horiz-adv-x="1326" 
d="M129 0v1489h588q249 0 391.5 -139t142.5 -365q0 -227 -144.5 -364.5t-397.5 -137.5h-265v-483h-315zM444 735h214q131 0 200 67.5t69 182.5q0 114 -68.5 180.5t-201.5 66.5h-213v-497z" />
    <glyph glyph-name="uni0051" unicode="Q" horiz-adv-x="1602" 
d="M1498 745q0 -194 -61.5 -347t-173.5 -253l213 -267h-294l-120 147q-116 -45 -261 -45q-149 0 -276.5 52t-221.5 148t-147 241.5t-53 323.5q0 179 53 324.5t147 241.5t221.5 147.5t276.5 51.5q148 0 275.5 -51.5t221 -147.5t147 -241.5t53.5 -324.5zM692 518h267l111 -142
q109 130 109 369q0 233 -102 359.5t-276 126.5q-175 0 -276.5 -126.5t-101.5 -359.5t101.5 -360t276.5 -127q41 0 81 8z" />
    <glyph glyph-name="uni0052" unicode="R" horiz-adv-x="1344" 
d="M129 0v1489h588q251 0 392.5 -131t141.5 -355q0 -152 -68 -260.5t-195 -163.5l316 -579h-348l-282 528h-230v-528h-315zM444 781h214q269 0 269 222q0 229 -270 229h-213v-451z" />
    <glyph glyph-name="uni0053" unicode="S" horiz-adv-x="1341" 
d="M937 1061q-9 88 -75 137t-179 49t-176 -46.5t-63 -120.5q-1 -74 61.5 -116.5t173.5 -68.5l134 -32q208 -46 327 -153.5t120 -284.5q-1 -206 -154.5 -326t-424.5 -120q-276 0 -435 125.5t-165 363.5h305q7 -109 86 -167t206 -58q119 0 191 50.5t73 132.5q-1 71 -62 113
t-191 73l-162 41q-407 97 -406 406q-1 201 157.5 326t406.5 125q247 0 399 -124.5t155 -324.5h-302z" />
    <glyph glyph-name="uni0054" unicode="T" horiz-adv-x="1368" 
d="M73 1230v259h1223v-259h-456v-1230h-311v1230h-456z" />
    <glyph glyph-name="uni0055" unicode="U" horiz-adv-x="1493" 
d="M1049 1489h315v-967q0 -244 -169.5 -393.5t-447.5 -149.5q-279 0 -448.5 149t-169.5 394v967h315v-940q0 -129 83.5 -211t219.5 -82t219 82t83 211v940z" />
    <glyph glyph-name="uni0056" unicode="V" horiz-adv-x="1531" 
d="M399 1489l360 -1131h13l361 1131h349l-513 -1489h-406l-514 1489h350z" />
    <glyph glyph-name="uni0057" unicode="W" horiz-adv-x="2121" 
d="M465 0l-426 1489h344l246 -1034h12l272 1034h295l271 -1037h13l247 1037h344l-426 -1489h-307l-284 974h-11l-283 -974h-307z" />
    <glyph glyph-name="uni0058" unicode="X" horiz-adv-x="1463" 
d="M425 1489l300 -507h12l302 507h355l-454 -744l464 -745h-362l-305 508h-12l-305 -508h-361l466 745l-457 744h357z" />
    <glyph glyph-name="uni0059" unicode="Y" horiz-adv-x="1483" 
d="M42 1489h353l340 -641h14l340 641h352l-543 -962v-527h-313v527z" />
    <glyph glyph-name="uni005A" unicode="Z" horiz-adv-x="1365" 
d="M113 0v187l744 1043h-745v259h1140v-186l-744 -1043h746v-260h-1141z" />
    <glyph glyph-name="uni005B" unicode="[" horiz-adv-x="837" 
d="M217 -324v1841h574v-231h-275v-1378h275v-232h-574z" />
    <glyph glyph-name="uni005C" unicode="\" horiz-adv-x="798" 
d="M505 -224l-480 1783h267l480 -1783h-267z" />
    <glyph glyph-name="uni005D" unicode="]" horiz-adv-x="837" 
d="M621 1518v-1841h-574v231h274v1378h-274v232h574z" />
    <glyph glyph-name="uni005E" unicode="^" horiz-adv-x="998" 
d="M68 815l306 642h250l307 -642h-234l-192 434h-12l-190 -434h-235z" />
    <glyph glyph-name="uni005F" unicode="_" horiz-adv-x="976" 
d="M977 0v-235h-978v235h978z" />
    <glyph glyph-name="uni0060" unicode="`" horiz-adv-x="1018" 
d="M511 1261l-222 331h286l154 -331h-218z" />
    <glyph glyph-name="uni0061" unicode="a" horiz-adv-x="1188" 
d="M442 -21q-166 0 -268.5 86t-102.5 247q0 72 23 129t60.5 94t93.5 63t114 39t129 19l88.5 9t66.5 9t53.5 12t33.5 16t22.5 23t5.5 31v5q0 69 -43 106.5t-122 37.5q-80 0 -131.5 -35t-67.5 -93l-286 23q33 155 160 243.5t326 88.5q96 0 179.5 -22.5t150.5 -67t105.5 -119
t38.5 -170.5v-753h-294v155h-8q-43 -82 -125.5 -129t-201.5 -47zM531 193q101 0 167 59t66 147v119q-39 -27 -216 -50q-181 -25 -181 -146q0 -62 45 -95.5t119 -33.5z" />
    <glyph glyph-name="uni0062" unicode="b" horiz-adv-x="1301" 
d="M129 0v1489h310v-560h10q17 38 41.5 70.5t62 64t92.5 50t122 18.5q93 0 174 -36.5t143.5 -106.5t98.5 -181t36 -251q0 -137 -35 -247t-96 -181t-143.5 -109t-178.5 -38q-123 0 -201 57t-116 140h-14v-179h-306zM433 559q0 -151 62.5 -241t172.5 -90q112 0 173.5 90.5
t61.5 240.5q0 148 -61.5 237t-173.5 89t-173.5 -87.5t-61.5 -238.5z" />
    <glyph glyph-name="uni0063" unicode="c" horiz-adv-x="1202" 
d="M628 -22q-254 0 -401.5 158.5t-147.5 417.5q0 260 148 419t400 159q218 0 354 -117t146 -311h-292q-13 85 -66.5 135.5t-136.5 50.5q-110 0 -174.5 -87.5t-64.5 -243.5q0 -159 64.5 -247.5t174.5 -88.5q81 0 135.5 49t67.5 137h292q-11 -195 -145 -313t-354 -118z" />
    <glyph glyph-name="uni0064" unicode="d" horiz-adv-x="1301" 
d="M535 -18q-96 0 -178.5 38t-143.5 109t-96 181t-35 247q0 140 36 251t99 181t144 106.5t174 36.5q67 0 122 -18t92 -50t61.5 -64.5t41.5 -70.5h10v560h309v-1489h-306v179h-13q-38 -83 -116 -140t-201 -57zM633 228q110 0 172.5 90t62.5 241t-61.5 238.5t-173.5 87.5
t-173 -89t-61 -237q0 -150 61.5 -240.5t172.5 -90.5z" />
    <glyph glyph-name="uni0065" unicode="e" horiz-adv-x="1224" 
d="M633 -22q-257 0 -405.5 154.5t-148.5 420.5q0 260 147.5 419.5t393.5 159.5q112 0 206.5 -36t166 -105t112 -178.5t40.5 -248.5v-85h-760q0 -125 68 -197.5t185 -72.5q78 0 134.5 33.5t79.5 96.5l287 -19q-33 -157 -167 -249.5t-339 -92.5zM385 671h469
q-1 100 -64.5 164.5t-164.5 64.5t-168 -66t-72 -163z" />
    <glyph glyph-name="uni0066" unicode="f" horiz-adv-x="789" 
d="M724 1117v-233h-221v-884h-310v884h-158v233h158v81q0 176 101 268.5t265 92.5q121 0 219 -30l-54 -233q-50 16 -100 16q-66 0 -93.5 -30t-27.5 -90v-75h221z" />
    <glyph glyph-name="uni0067" unicode="g" horiz-adv-x="1296" 
d="M627 -442q-217 0 -349.5 86.5t-161.5 224.5l287 39q21 -56 78 -92t153 -36q108 0 170.5 51.5t62.5 161.5v205h-13q-35 -78 -115 -130t-204 -52q-96 0 -177.5 33.5t-143.5 99t-97 171t-35 241.5q0 138 36 248.5t98.5 180t144 106t174.5 36.5q67 0 122.5 -18.5t93 -50
t62 -64t41.5 -70.5h11v188h308v-1128q0 -208 -149.5 -319.5t-396.5 -111.5zM633 249q112 0 173.5 82.5t61.5 230.5q0 149 -61.5 236t-173.5 87t-173 -88.5t-61 -234.5q0 -147 60.5 -230t173.5 -83z" />
    <glyph glyph-name="uni0068" unicode="h" horiz-adv-x="1278" 
d="M433 646v-646h-309v1489h301v-569h13q39 101 124 156.5t210 55.5q176 0 281.5 -113t104.5 -308v-711h-310v656q1 103 -51.5 160.5t-147.5 57.5q-97 0 -156 -61t-60 -167z" />
    <glyph glyph-name="uni0069" unicode="i" horiz-adv-x="557" 
d="M124 0v1117h309v-1117h-309zM279 1261q-69 0 -118 46t-49 111t49 111t118 46t118.5 -46.5t49.5 -110.5q0 -65 -49.5 -111t-118.5 -46z" />
    <glyph glyph-name="uni006A" unicode="j" horiz-adv-x="557" 
d="M124 1117h309v-1172q0 -364 -423 -364q-16 0 -62 2v242q32 -2 40 -2q73 0 104.5 31t31.5 96v1167zM278 1261q-69 0 -118 46t-49 111t49 111t118 46t118.5 -46.5t49.5 -110.5q0 -65 -49.5 -111t-118.5 -46z" />
    <glyph glyph-name="uni006B" unicode="k" horiz-adv-x="1191" 
d="M124 0v1489h309v-796h17l358 424h356l-415 -484l436 -633h-363l-305 450l-84 -95v-355h-309z" />
    <glyph glyph-name="uni006C" unicode="l" horiz-adv-x="557" 
d="M433 1489v-1489h-309v1489h309z" />
    <glyph glyph-name="uni006D" unicode="m" horiz-adv-x="1867" 
d="M124 0v1117h295v-197h13q36 100 117.5 156t193.5 56q114 0 195.5 -57.5t108.5 -154.5h11q35 97 125 154.5t212 57.5q159 0 255.5 -101t96.5 -280v-751h-309v690q0 90 -48 138t-125 48q-84 0 -131.5 -53t-47.5 -141v-682h-301v697q0 82 -46.5 130.5t-123.5 48.5
q-79 0 -130.5 -56.5t-51.5 -148.5v-671h-309z" />
    <glyph glyph-name="uni006E" unicode="n" horiz-adv-x="1273" 
d="M433 646v-646h-309v1117h295v-197h13q38 99 125.5 155.5t210.5 56.5q176 0 280.5 -113.5t104.5 -307.5v-711h-309v656q1 102 -52.5 160t-146.5 58q-95 0 -153 -61t-59 -167z" />
    <glyph glyph-name="uni006F" unicode="o" horiz-adv-x="1256" 
d="M628 -22q-252 0 -400.5 158t-148.5 418q0 261 148.5 419.5t400.5 158.5q253 0 401.5 -158.5t148.5 -419.5q0 -260 -149 -418t-401 -158zM630 218q111 0 172 93.5t61 244.5t-61 245t-172 94q-114 0 -175.5 -94t-61.5 -245t61.5 -244.5t175.5 -93.5z" />
    <glyph glyph-name="uni0070" unicode="p" horiz-adv-x="1295" 
d="M124 -419v1536h305v-188h14q17 38 41.5 70.5t62 64t92.5 50t122 18.5q93 0 174 -36.5t143.5 -106.5t98.5 -181t36 -251q0 -137 -35 -247t-96 -181t-143.5 -109t-178.5 -38q-123 0 -201 57t-116 140h-10v-598h-309zM427 559q0 -151 62.5 -241t172.5 -90q112 0 173.5 90.5
t61.5 240.5q0 148 -61.5 237t-173.5 89t-173.5 -87.5t-61.5 -238.5z" />
    <glyph glyph-name="uni0071" unicode="q" horiz-adv-x="1295" 
d="M862 -419v598h-10q-38 -83 -116 -140t-201 -57q-96 0 -178.5 38t-143.5 109t-96 181t-35 247q0 140 36 251t99 181t144 106.5t174 36.5q67 0 122 -18t92 -50t61.5 -64.5t41.5 -70.5h13v188h306v-1536h-309zM633 228q110 0 172.5 90t62.5 241t-61.5 238.5t-173.5 87.5
t-173 -89t-61 -237q0 -150 61.5 -240.5t172.5 -90.5z" />
    <glyph glyph-name="uni0072" unicode="r" horiz-adv-x="837" 
d="M124 0v1117h300v-195h12q30 102 101.5 156.5t166.5 54.5q53 0 97 -11v-275q-55 17 -130 17q-103 0 -170.5 -65t-67.5 -167v-632h-309z" />
    <glyph glyph-name="uni0073" unicode="s" horiz-adv-x="1150" 
d="M1053 799l-284 -18q-12 57 -60.5 94t-125.5 37q-73 0 -122.5 -31t-48.5 -80q-1 -41 32 -68t109 -44l203 -40q163 -33 242.5 -107.5t80.5 -195.5q-1 -164 -140.5 -266t-357.5 -102q-220 0 -352.5 92t-154.5 254l305 16q14 -68 66.5 -103.5t136.5 -35.5q80 0 130.5 32
t51.5 82q-1 82 -144 111l-193 39q-163 33 -243.5 113t-79.5 206q-1 160 128 254t345 94q209 0 332 -88t144 -245z" />
    <glyph glyph-name="uni0074" unicode="t" horiz-adv-x="795" 
d="M718 1117v-233h-210v-541q0 -61 26.5 -85t77.5 -24q27 0 77 10l49 -230q-80 -26 -168 -29q-173 -7 -273 75t-99 243v581h-153v233h153v268h310v-268h210z" />
    <glyph glyph-name="uni0075" unicode="u" horiz-adv-x="1273" 
d="M840 476v641h310v-1117h-298v203h-11q-38 -101 -127 -159.5t-212 -58.5q-170 0 -273.5 113.5t-104.5 307.5v711h309v-656q1 -99 53.5 -156.5t140.5 -57.5q89 0 151.5 61t61.5 168z" />
    <glyph glyph-name="uni0076" unicode="v" horiz-adv-x="1200" 
d="M1165 1117l-390 -1117h-350l-390 1117h327l232 -799h12l231 799h328z" />
    <glyph glyph-name="uni0077" unicode="w" horiz-adv-x="1741" 
d="M344 0l-304 1117h313l174 -750h10l180 750h308l183 -746h9l171 746h312l-303 -1117h-328l-192 703h-14l-192 -703h-327z" />
    <glyph glyph-name="uni0078" unicode="x" horiz-adv-x="1175" 
d="M383 1117l205 -390l210 390h318l-324 -558l332 -559h-316l-220 386l-217 -386h-320l332 559l-320 558h320z" />
    <glyph glyph-name="uni0079" unicode="y" horiz-adv-x="1200" 
d="M315 -419q-121 0 -195 32l70 231q80 -29 139 -13t88 90l19 47l-401 1149h326l231 -820h12l233 820h328l-434 -1238q-104 -298 -416 -298z" />
    <glyph glyph-name="uni007A" unicode="z" horiz-adv-x="1170" 
d="M118 0v185l547 677v8h-528v247h901v-201l-514 -661v-8h533v-247h-939z" />
    <glyph glyph-name="uni007B" unicode="{" horiz-adv-x="837" 
d="M791 -324q-68 0 -120.5 3.5t-107.5 14.5t-94.5 29.5t-75.5 49.5t-58 73.5t-35 102t-13 135.5v161q0 114 -50.5 163t-173.5 49v280q123 0 173.5 49t50.5 163v161q0 76 13 135.5t35 102t58 73.5t75.5 49t94.5 29t107 14.5t121 3.5v-231q-123 0 -165.5 -47.5t-42.5 -159.5
v-213q0 -45 -11 -81t-38.5 -70.5t-80.5 -60.5t-129 -42v-29q76 -16 129 -42t80 -61t38.5 -71.5t11.5 -81.5v-212q0 -112 42.5 -159.5t165.5 -47.5v-232z" />
    <glyph glyph-name="uni007C" unicode="|" horiz-adv-x="765" 
d="M529 1969v-2449h-293v2449h293z" />
    <glyph glyph-name="uni007D" unicode="}" horiz-adv-x="837" 
d="M47 1518q69 0 121 -3.5t107 -14.5t94.5 -29t75.5 -49t58 -73.5t35 -102t13 -135.5v-162q0 -114 50.5 -163t173.5 -49v-280q-123 0 -173.5 -49t-50.5 -163v-161q0 -76 -13 -135.5t-35 -102t-58 -73.5t-75.5 -49t-94.5 -29t-107 -14.5t-121 -3.5v231q123 0 165.5 48
t42.5 160v212q0 95 56 160t202 95v29q-76 16 -128.5 42t-80 60.5t-38.5 71t-11 81.5v212q0 112 -42.5 159.5t-165.5 47.5v232z" />
    <glyph glyph-name="uni007E" unicode="~" horiz-adv-x="1392" 
d="M156 402q-7 203 78.5 315t236.5 112q70 0 132 -28t140 -98q34 -30 50.5 -43t40 -23t47.5 -10q54 0 86.5 42.5t30.5 126.5h237q7 -203 -79.5 -315.5t-234.5 -112.5q-71 0 -133.5 29.5t-140.5 97.5q-51 45 -76.5 60.5t-59.5 15.5q-55 0 -87 -41.5t-30 -127.5h-238z" />
    <glyph glyph-name="uni00A0" unicode="&#xa0;" horiz-adv-x="474" 
 />
    <glyph glyph-name="uni00A1" unicode="&#xa1;" horiz-adv-x="664" 
d="M494 -377h-324l29 1043h266zM332 1132q70 0 122 -51.5t53 -123.5q-1 -71 -53 -122t-122 -51q-72 0 -123.5 51t-50.5 122q-1 73 50.5 124t123.5 51z" />
    <glyph glyph-name="uni00A2" unicode="&#xa2;" horiz-adv-x="1202" 
d="M567 0v171q-228 19 -358 175t-130 398q0 243 131 399.5t357 175.5v170h120v-170q194 -17 312.5 -131t127.5 -294h-292q-11 70 -49 117t-99 62v-653q59 15 98 61t50 118h292q-11 -181 -128 -297t-312 -132v-170h-120zM567 422v649q-81 -24 -127.5 -108t-46.5 -215
q0 -133 46 -217.5t128 -108.5z" />
    <glyph glyph-name="uni00A3" unicode="&#xa3;" horiz-adv-x="1375" 
d="M1226 0h-1082v260h95q79 18 75 172l-6 161h-168v248h160l-8 227q-5 138 56 239.5t167.5 152t243.5 50.5q224 0 351 -119.5t119 -310.5l-294 8q3 87 -45 128t-126 41q-73 0 -118 -48.5t-44 -140.5l9 -227h327v-248h-318l5 -144q4 -118 -57 -189h658v-260z" />
    <glyph glyph-name="uni00A4" unicode="&#xa4;" horiz-adv-x="1566" 
d="M783 -20q-211 0 -374 128l-133 -133l-139 143l137 136q-104 158 -104 354q0 205 113 367l-146 146l139 143l148 -147q160 116 359 116q201 0 361 -118l149 149l142 -143l-152 -150q112 -159 112 -363q0 -194 -103 -351l143 -139l-142 -143l-135 136q-163 -131 -375 -131z
M783 169q176 0 300.5 127.5t125.5 311.5q-1 186 -125 312.5t-301 126.5q-180 0 -304 -126.5t-123 -312.5q-1 -184 123.5 -311.5t303.5 -127.5z" />
    <glyph glyph-name="uni00A5" unicode="&#xa5;" horiz-adv-x="1171" 
d="M352 1489l234 -570l234 570h323l-332 -721h220v-180h-294v-108h294v-180h-294v-300h-311v300h-317v180h317v108h-317v180h250l-330 721h323z" />
    <glyph glyph-name="uni00A6" unicode="&#xa6;" horiz-adv-x="706" 
d="M215 415h277v-694h-277v694zM492 1489v-691h-277v691h277z" />
    <glyph glyph-name="uni00A7" unicode="&#xa7;" horiz-adv-x="1214" 
d="M1021 1120h-272q-1 58 -40.5 94.5t-112.5 36.5q-62 0 -103 -26.5t-41 -76.5q0 -47 42.5 -85.5t96.5 -59.5l278 -129q250 -114 230 -336q-4 -43 -23.5 -79.5t-48 -60.5t-56.5 -39t-55 -23l-3 -3q124 -110 124 -270q0 -168 -121 -266t-309 -98q-202 0 -328 109.5
t-126 290.5h274q0 -69 49 -106t134 -33q62 1 106.5 27t44.5 76q0 27 -12 50t-36 41.5t-41 28.5t-45 24l-279 126q-250 111 -231 339q7 83 61.5 134t122.5 70v2q-123 122 -122 270q-1 157 116.5 259.5t300.5 102.5q189 0 306.5 -109.5t118.5 -280.5zM845 522q11 77 -118 132
l-243 110q-39 18 -74.5 -6t-40.5 -70q-10 -77 119 -133l243 -108q35 -15 71.5 7.5t42.5 67.5z" />
    <glyph glyph-name="uni00A8" unicode="&#xa8;" horiz-adv-x="1095" 
d="M326 1270q-63 0 -108 43.5t-45 104.5t45 104.5t108 43.5t107 -43t44 -105q0 -61 -44 -104.5t-107 -43.5zM771 1270q-63 0 -108 43.5t-45 104.5t45 104.5t108 43.5t107 -43t44 -105q0 -61 -44 -104.5t-107 -43.5z" />
    <glyph glyph-name="uni00A9" unicode="&#xa9;" horiz-adv-x="1873" 
d="M937 -23q-208 0 -385 103t-280 280t-103 385q0 156 61 298.5t164 245t245 163.5t298 61q209 0 385.5 -103t279.5 -279.5t103 -385.5t-102.5 -385.5t-279.5 -279.5t-386 -103zM937 219q144 0 265 70.5t191 191t70 263.5q0 144 -70.5 265t-191.5 191.5t-264 70.5
q-106 0 -203.5 -42t-168 -112.5t-112.5 -168t-42 -204.5q0 -142 70.5 -263t191.5 -191.5t264 -70.5zM532 745q0 170 120.5 290t290.5 120q149 0 259.5 -95t127.5 -236h-216q-11 55 -59.5 89.5t-111.5 34.5q-84 0 -144 -59.5t-60 -143.5t60 -143.5t144 -59.5q63 0 108.5 34
t56.5 89h216q-17 -142 -125 -236t-256 -94q-170 0 -290.5 120t-120.5 290z" />
    <glyph glyph-name="uni00AA" unicode="&#xaa;" horiz-adv-x="997" 
d="M632 775q-77 -83 -209 -83q-121 0 -188 61.5t-67 165.5q0 112 88.5 172t263.5 60h104v50q0 128 -120 128q-67 0 -104.5 -25t-37.5 -73l-178 13q0 102 88.5 168t231.5 66q138 0 219 -71.5t81 -205.5v-314q0 -111 27 -182h-182q-11 33 -17 70zM624 1034h-104
q-84 0 -127.5 -31.5t-43.5 -78.5q0 -88 120 -88q40 0 83.5 18.5t71.5 44.5v135z" />
    <glyph glyph-name="uni00AB" unicode="&#xab;" horiz-adv-x="1281" 
d="M1172 160h-280l-294 436v21l294 436h280l-276 -446zM694 160h-281l-294 436v21l294 436h281l-277 -446z" />
    <glyph glyph-name="uni00AC" unicode="&#xac;" horiz-adv-x="1187" 
d="M1025 806v-431h-205v259h-653v172h858z" />
    <glyph glyph-name="uni00AD" unicode="&#xad;" horiz-adv-x="960" 
d="M820 735v-246h-680v246h680z" />
    <glyph glyph-name="uni00AE" unicode="&#xae;" horiz-adv-x="1359" 
d="M679 346q-158 0 -292 78t-212 212t-78 292t78 292t212 212t292 78t292 -78t212 -212t78 -292q0 -118 -46 -226t-124 -186t-185.5 -124t-226.5 -46zM679 500q178 0 303.5 125t125.5 303q0 177 -125.5 302.5t-303.5 125.5q-177 0 -302 -125.5t-125 -302.5t125 -302.5
t302 -125.5zM469 666v537h263q79 0 132.5 -48t53.5 -130q0 -104 -86 -152l102 -207h-153l-83 181h-89v-181h-140zM609 948h87q33 0 54 20t21 57t-21 56t-53 19h-88v-152z" />
    <glyph glyph-name="uni00AF" unicode="&#xaf;" horiz-adv-x="1156" 
d="M932 1489v-168h-708v168h708z" />
    <glyph glyph-name="uni00B0" unicode="&#xb0;" horiz-adv-x="941" 
d="M471 785q-148 0 -253 104.5t-105 252.5t105 253t253 105t252.5 -104.5t104.5 -253.5q0 -148 -104.5 -252.5t-252.5 -104.5zM471 991q63 0 106.5 44t43.5 107t-43.5 107t-106.5 44q-62 0 -106.5 -44t-44.5 -107q0 -62 44.5 -106.5t106.5 -44.5z" />
    <glyph glyph-name="uni00B1" unicode="&#xb1;" horiz-adv-x="1392" 
d="M184 661v239h382v252h260v-252h382v-239h-382v-252h-260v252h-382zM184 56v247h1024v-247h-1024z" />
    <glyph glyph-name="uni00B2" unicode="&#xb2;" horiz-adv-x="868" 
d="M89 745v160l355 283q38 31 56 47t39.5 39.5t29.5 44.5t8 45q0 51 -41.5 80t-104.5 29q-67 0 -106 -32t-39 -90h-215q0 138 100.5 218t261.5 80q160 0 258.5 -80.5t98.5 -201.5q0 -94 -58.5 -170.5t-191.5 -165.5l-129 -96v-8h389v-182h-711z" />
    <glyph glyph-name="uni00B3" unicode="&#xb3;" horiz-adv-x="906" 
d="M449 733q-165 0 -272 75.5t-111 195.5h229q3 -40 46 -63t108 -23q68 0 113 26t45 72q0 45 -47 73t-127 28h-103v165h103q67 0 108.5 27.5t41.5 70.5q0 42 -36 67.5t-95 25.5q-63 0 -106 -25t-45 -65h-214q2 117 107 191.5t261 74.5q153 0 249.5 -73.5t96.5 -182.5
q0 -75 -52.5 -123.5t-132.5 -59.5v-7q106 -10 164.5 -63.5t58.5 -138.5q0 -117 -110.5 -192.5t-279.5 -75.5z" />
    <glyph glyph-name="uni00B4" unicode="&#xb4;" horiz-adv-x="1018" 
d="M388 1261l155 331h286l-222 -331h-219z" />
    <glyph glyph-name="uni00B5" unicode="&#xb5;" horiz-adv-x="1365" 
d="M124 -405v1522h309v-641q1 -102 69.5 -165.5t179.5 -63.5t180.5 63.5t69.5 165.5v641h309v-1117h-297v159h-9q-33 -72 -100.5 -112t-152.5 -40q-84 0 -151.5 40t-100.5 112h-9v-564h-297z" />
    <glyph glyph-name="uni00B6" unicode="&#xb6;" horiz-adv-x="1248" 
d="M872 0v1251h-180v-698h-86q-240 0 -373 129.5t-133 338.5q0 208 133.5 338t372.5 130h513v-1489h-247z" />
    <glyph glyph-name="uni00B7" unicode="&#xb7;" horiz-adv-x="609" 
d="M305 478q-72 0 -124 51t-51 123q-1 71 51 122t124 51q70 0 121.5 -51t52.5 -122q-1 -72 -52.5 -123t-121.5 -51z" />
    <glyph glyph-name="uni00B8" unicode="&#xb8;" horiz-adv-x="766" 
d="M313 6h143l-12 -63q78 -12 124 -57.5t47 -119.5q1 -110 -100.5 -173.5t-283.5 -63.5l-3 138q195 0 198 91q1 44 -33.5 67.5t-111.5 32.5z" />
    <glyph glyph-name="uni00B9" unicode="&#xb9;" horiz-adv-x="657" 
d="M294 745v690h-5l-215 -135v191l232 147h200v-893h-212z" />
    <glyph glyph-name="uni00BA" unicode="&#xba;" horiz-adv-x="992" 
d="M140 1044v77q0 158 97.5 257.5t258.5 99.5q163 0 260 -99.5t97 -257.5v-77q0 -157 -95.5 -255t-258.5 -98q-164 0 -261.5 98t-97.5 255zM319 1121v-77q0 -92 46.5 -149t133.5 -57q85 0 129.5 56.5t44.5 149.5v77q0 92 -45.5 150t-131.5 58q-84 0 -130.5 -58.5
t-46.5 -149.5z" />
    <glyph glyph-name="uni00BB" unicode="&#xbb;" horiz-adv-x="1288" 
d="M589 160l276 447l-276 446h281l294 -436v-21l-294 -436h-281zM103 160l277 447l-277 446h281l294 -436v-21l-294 -436h-281z" />
    <glyph glyph-name="uni00BC" unicode="&#xbc;" horiz-adv-x="1800" 
d="M1012 127v161l368 503h256v-500h116v-164h-116v-127h-192v127h-432zM247 0l1024 1489h189l-1024 -1489h-189zM257 698v599h-5l-191 -119v181l207 130h189v-791h-200zM1447 291v284h-8l-222 -278v-6h230z" />
    <glyph glyph-name="uni00BD" unicode="&#xbd;" horiz-adv-x="1875" 
d="M1177 0v145l322 250q44 35 63.5 52.5t37 44.5t17.5 54q0 45 -37 70t-96 25t-94.5 -27.5t-35.5 -78.5h-193q0 123 91.5 195.5t236.5 72.5q143 0 231 -72.5t88 -181.5q0 -84 -53 -152.5t-172 -144.5l-115 -79v-7h348v-166h-639zM247 0l1024 1489h189l-1024 -1489h-189z
M257 698v599h-5l-191 -119v181l207 130h189v-791h-200z" />
    <glyph glyph-name="uni00BE" unicode="&#xbe;" horiz-adv-x="1976" 
d="M1188 127v161l368 503h256v-500h116v-164h-116v-127h-192v127h-432zM407 687q-153 0 -248.5 68t-98.5 173h206q3 -34 41 -55t95 -21q63 0 104 24t41 62t-41.5 62.5t-113.5 24.5h-95v151h95q59 0 96.5 23.5t37.5 60.5t-32.5 60t-87.5 23q-53 0 -91.5 -22t-41.5 -56h-196
q4 103 99 169.5t235 66.5q138 0 225 -65.5t87 -162.5q0 -65 -45 -108.5t-119 -53.5v-7q95 -9 147 -57t52 -123q0 -104 -99.5 -170.5t-251.5 -66.5zM422 0l1024 1489h190l-1024 -1489h-190zM1623 291v284h-8l-222 -278v-6h230z" />
    <glyph glyph-name="uni00BF" unicode="&#xbf;" horiz-adv-x="1152" 
d="M762 655v-24q0 -94 -12 -160t-39 -112.5t-58 -76t-82 -61.5q-76 -49 -117.5 -99t-41.5 -116q0 -74 51.5 -120.5t126.5 -46.5q76 0 130 48.5t57 133.5h297q-3 -141 -70.5 -239.5t-173.5 -144t-242 -45.5q-221 0 -357 107.5t-136 295.5q0 122 57.5 207.5t166.5 150.5
q90 54 128.5 114.5t39.5 163.5v24h275zM619 1121q72 0 123.5 -51t50.5 -124q1 -71 -50.5 -122t-123.5 -51q-70 0 -122 51t-53 122q1 72 53 123.5t122 51.5z" />
    <glyph glyph-name="uni00C0" unicode="&#xc0;" horiz-adv-x="1531" 
d="M386 0h-337l514 1489h406l513 -1489h-337l-111 340h-537zM577 585h378l-183 564h-12zM658 1633l-222 331h286l155 -331h-219z" />
    <glyph glyph-name="uni00C1" unicode="&#xc1;" horiz-adv-x="1531" 
d="M386 0h-337l514 1489h406l513 -1489h-337l-111 340h-537zM577 585h378l-183 564h-12zM655 1633l154 331h286l-222 -331h-218z" />
    <glyph glyph-name="uni00C2" unicode="&#xc2;" horiz-adv-x="1531" 
d="M386 0h-337l514 1489h406l513 -1489h-337l-111 340h-537zM912 1623l-146 178l-146 -178h-264v10l295 320h230l295 -320v-10h-264zM577 585h378l-183 564h-12z" />
    <glyph glyph-name="uni00C3" unicode="&#xc3;" horiz-adv-x="1531" 
d="M386 0h-337l514 1489h406l513 -1489h-337l-111 340h-537zM558 1636l-173 3q0 134 67 210.5t170 77.5q35 0 69.5 -11.5t50.5 -21t48 -31.5q63 -46 100 -46q41 1 63.5 31.5t23.5 81.5l169 -5q-1 -134 -67 -210t-169 -77q-38 0 -72.5 11t-51 21.5t-45.5 31.5q-60 45 -100 45
q-38 0 -60.5 -30t-22.5 -81zM577 585h378l-183 564h-12z" />
    <glyph glyph-name="uni00C4" unicode="&#xc4;" horiz-adv-x="1531" 
d="M386 0h-337l514 1489h406l513 -1489h-337l-111 340h-537zM577 585h378l-183 564h-12zM544 1642q-63 0 -108 44t-45 105t45 104t108 43t107 -43t44 -104t-44 -105t-107 -44zM989 1642q-63 0 -108 44t-45 105t45 104t108 43t107 -43t44 -104t-44 -105t-107 -44z" />
    <glyph glyph-name="uni00C5" unicode="&#xc5;" horiz-adv-x="1531" 
d="M386 0h-337l514 1489h406l513 -1489h-337l-111 340h-537zM766 1575q-93 0 -158.5 64t-65.5 155t65.5 155t158.5 64t158.5 -64t65.5 -155t-65.5 -155t-158.5 -64zM577 585h378l-183 564h-12zM766 1700q40 0 68.5 27.5t28.5 66.5t-28 67t-69 28q-41 -1 -69.5 -28.5
t-28.5 -66.5t28.5 -67t69.5 -27z" />
    <glyph glyph-name="uni00C6" unicode="&#xc6;" horiz-adv-x="2109" 
d="M49 0l638 1489h1301v-259h-688v-355h637v-260h-637v-355h691v-260h-1006v340h-450l-140 -340h-346zM636 585h349v595h-104z" />
    <glyph glyph-name="uni00C7" unicode="&#xc7;" horiz-adv-x="1540" 
d="M1444 968h-319q-18 122 -104.5 192.5t-216.5 70.5q-175 0 -278 -128t-103 -358q0 -234 102.5 -360.5t276.5 -126.5q127 0 214 66.5t109 184.5l319 -1q-12 -99 -57.5 -189t-118 -162t-179 -119t-232.5 -56l-7 -41q78 -12 124 -57.5t47 -119.5q1 -110 -100.5 -173.5
t-283.5 -63.5l-3 138q195 0 198 91q1 44 -33.5 68t-111.5 33l28 127q-274 28 -443 229t-169 532q0 179 53 324.5t146.5 241.5t220 147.5t274.5 51.5q263 0 440 -144t207 -398z" />
    <glyph glyph-name="uni00C8" unicode="&#xc8;" horiz-adv-x="1254" 
d="M129 0v1489h1004v-259h-689v-355h637v-260h-637v-355h692v-260h-1007zM527 1633l-222 331h286l154 -331h-218z" />
    <glyph glyph-name="uni00C9" unicode="&#xc9;" horiz-adv-x="1254" 
d="M129 0v1489h1004v-259h-689v-355h637v-260h-637v-355h692v-260h-1007zM522 1633l154 331h287l-222 -331h-219z" />
    <glyph glyph-name="uni00CA" unicode="&#xca;" horiz-adv-x="1254" 
d="M129 0v1489h1004v-259h-689v-355h637v-260h-637v-355h692v-260h-1007zM780 1623l-147 178l-146 -178h-264v10l296 320h230l295 -320v-10h-264z" />
    <glyph glyph-name="uni00CB" unicode="&#xcb;" horiz-adv-x="1254" 
d="M129 0v1489h1004v-259h-689v-355h637v-260h-637v-355h692v-260h-1007zM412 1642q-63 0 -108 44t-45 105t45 104t108 43t107 -43t44 -104t-44 -105t-107 -44zM857 1642q-63 0 -108 44t-45 105t45 104t108 43t107 -43t44 -104t-44 -105t-107 -44z" />
    <glyph glyph-name="uni00CC" unicode="&#xcc;" horiz-adv-x="574" 
d="M444 1489v-1489h-315v1489h315zM180 1633l-221 331h285l155 -331h-219z" />
    <glyph glyph-name="uni00CD" unicode="&#xcd;" horiz-adv-x="574" 
d="M444 1489v-1489h-315v1489h315zM177 1633l154 331h286l-221 -331h-219z" />
    <glyph glyph-name="uni00CE" unicode="&#xce;" horiz-adv-x="574" 
d="M444 1489v-1489h-315v1489h315zM434 1623l-146 178l-146 -178h-264v10l295 320h231l294 -320v-10h-264z" />
    <glyph glyph-name="uni00CF" unicode="&#xcf;" horiz-adv-x="574" 
d="M444 1489v-1489h-315v1489h315zM66 1642q-63 0 -108 44t-45 105t45 104t108 43t107 -43t44 -104t-44 -105t-107 -44zM511 1642q-63 0 -107.5 44t-44.5 105t44.5 104t107.5 43t107.5 -43t44.5 -104t-44.5 -105t-107.5 -44z" />
    <glyph glyph-name="uni00D0" unicode="&#xd0;" horiz-adv-x="1489" 
d="M657 0h-528v694h-207v182h207v613h533q337 0 530.5 -198t193.5 -545q0 -349 -194 -547.5t-535 -198.5zM444 270h200q214 0 321 115.5t107 360.5q0 244 -107 359t-320 115h-201v-344h204v-182h-204v-424z" />
    <glyph glyph-name="uni00D1" unicode="&#xd1;" horiz-adv-x="1505" 
d="M1375 1489v-1489h-272l-648 937h-11v-937h-315v1489h277l643 -936h13v936h313zM545 1627l-172 2q0 134 66.5 210.5t169.5 77.5q35 0 69.5 -11.5t50.5 -21t48 -31.5q62 -45 101 -45q41 1 63 31t23 82l170 -5q-1 -134 -67.5 -210.5t-169.5 -77.5q-38 0 -72 11t-50.5 21.5
t-45.5 31.5q-60 45 -100 45q-38 0 -61 -29.5t-23 -80.5z" />
    <glyph glyph-name="uni00D2" unicode="&#xd2;" horiz-adv-x="1601" 
d="M1498 745q0 -179 -53.5 -324.5t-147 -241.5t-221 -147.5t-275.5 -51.5q-149 0 -276.5 52t-221.5 148t-147 241.5t-53 323.5q0 179 53 324.5t147 241.5t221.5 147.5t276.5 51.5q148 0 275.5 -51.5t221 -147.5t147 -241.5t53.5 -324.5zM1179 745q0 233 -102 359.5
t-276 126.5q-175 0 -276.5 -126.5t-101.5 -359.5t101.5 -360t276.5 -127q174 0 276 127t102 360zM693 1633l-222 331h286l155 -331h-219z" />
    <glyph glyph-name="uni00D3" unicode="&#xd3;" horiz-adv-x="1601" 
d="M1498 745q0 -179 -53.5 -324.5t-147 -241.5t-221 -147.5t-275.5 -51.5q-149 0 -276.5 52t-221.5 148t-147 241.5t-53 323.5q0 179 53 324.5t147 241.5t221.5 147.5t276.5 51.5q148 0 275.5 -51.5t221 -147.5t147 -241.5t53.5 -324.5zM1179 745q0 233 -102 359.5
t-276 126.5q-175 0 -276.5 -126.5t-101.5 -359.5t101.5 -360t276.5 -127q174 0 276 127t102 360zM689 1633l155 331h286l-222 -331h-219z" />
    <glyph glyph-name="uni00D4" unicode="&#xd4;" horiz-adv-x="1601" 
d="M1498 745q0 -179 -53.5 -324.5t-147 -241.5t-221 -147.5t-275.5 -51.5q-149 0 -276.5 52t-221.5 148t-147 241.5t-53 323.5q0 179 53 324.5t147 241.5t221.5 147.5t276.5 51.5q148 0 275.5 -51.5t221 -147.5t147 -241.5t53.5 -324.5zM1179 745q0 233 -102 359.5
t-276 126.5q-175 0 -276.5 -126.5t-101.5 -359.5t101.5 -360t276.5 -127q174 0 276 127t102 360zM947 1623l-146 178l-146 -178h-264v10l295 320h230l295 -320v-10h-264z" />
    <glyph glyph-name="uni00D5" unicode="&#xd5;" horiz-adv-x="1601" 
d="M1498 745q0 -179 -53.5 -324.5t-147 -241.5t-221 -147.5t-275.5 -51.5q-149 0 -276.5 52t-221.5 148t-147 241.5t-53 323.5q0 179 53 324.5t147 241.5t221.5 147.5t276.5 51.5q148 0 275.5 -51.5t221 -147.5t147 -241.5t53.5 -324.5zM1179 745q0 233 -102 359.5
t-276 126.5q-175 0 -276.5 -126.5t-101.5 -359.5t101.5 -360t276.5 -127q174 0 276 127t102 360zM593 1636l-173 3q0 134 67 210.5t170 77.5q35 0 69.5 -11.5t50.5 -21t48 -31.5q63 -46 100 -46q41 1 63.5 31.5t23.5 81.5l169 -5q-1 -134 -67 -210t-169 -77q-38 0 -72.5 11
t-51 21.5t-45.5 31.5q-60 45 -100 45q-38 0 -60.5 -30t-22.5 -81z" />
    <glyph glyph-name="uni00D6" unicode="&#xd6;" horiz-adv-x="1601" 
d="M1498 745q0 -179 -53.5 -324.5t-147 -241.5t-221 -147.5t-275.5 -51.5q-149 0 -276.5 52t-221.5 148t-147 241.5t-53 323.5q0 179 53 324.5t147 241.5t221.5 147.5t276.5 51.5q148 0 275.5 -51.5t221 -147.5t147 -241.5t53.5 -324.5zM1179 745q0 233 -102 359.5
t-276 126.5q-175 0 -276.5 -126.5t-101.5 -359.5t101.5 -360t276.5 -127q174 0 276 127t102 360zM579 1642q-63 0 -108 44t-45 105t45 104t108 43t107 -43t44 -104t-44 -105t-107 -44zM1024 1642q-63 0 -108 44t-45 105t45 104t108 43t107 -43t44 -104t-44 -105t-107 -44z
" />
    <glyph glyph-name="uni00D7" unicode="&#xd7;" horiz-adv-x="1392" 
d="M1035 65l-339 339l-340 -339l-190 192l338 338l-338 338l190 193l340 -339l339 339l191 -193l-339 -338l339 -338z" />
    <glyph glyph-name="uni00D8" unicode="&#xd8;" horiz-adv-x="1601" 
d="M337 -71l-142 96l108 155q-200 208 -200 565q0 179 53 324.5t147 241.5t221.5 147.5t276.5 51.5q204 0 362 -94l99 142l142 -96l-107 -152q201 -209 201 -565q0 -179 -53.5 -324.5t-147 -241.5t-221 -147.5t-275.5 -51.5q-207 0 -363 93zM1179 745q0 180 -64 302
l-511 -735q82 -54 197 -54q174 0 276 127t102 360zM487 444l510 733q-83 54 -196 54q-175 0 -276.5 -126.5t-101.5 -359.5q0 -181 64 -301z" />
    <glyph glyph-name="uni00D9" unicode="&#xd9;" horiz-adv-x="1493" 
d="M1049 1489h315v-967q0 -244 -169.5 -393.5t-447.5 -149.5q-279 0 -448.5 149t-169.5 394v967h315v-940q0 -129 83.5 -211t219.5 -82t219 82t83 211v940zM640 1633l-222 331h286l155 -331h-219z" />
    <glyph glyph-name="uni00DA" unicode="&#xda;" horiz-adv-x="1493" 
d="M1049 1489h315v-967q0 -244 -169.5 -393.5t-447.5 -149.5q-279 0 -448.5 149t-169.5 394v967h315v-940q0 -129 83.5 -211t219.5 -82t219 82t83 211v940zM636 1633l154 331h286l-221 -331h-219z" />
    <glyph glyph-name="uni00DB" unicode="&#xdb;" horiz-adv-x="1493" 
d="M1049 1489h315v-967q0 -244 -169.5 -393.5t-447.5 -149.5q-279 0 -448.5 149t-169.5 394v967h315v-940q0 -129 83.5 -211t219.5 -82t219 82t83 211v940zM893 1623l-146 178l-146 -178h-264v10l295 320h231l294 -320v-10h-264z" />
    <glyph glyph-name="uni00DC" unicode="&#xdc;" horiz-adv-x="1493" 
d="M1049 1489h315v-967q0 -244 -169.5 -393.5t-447.5 -149.5q-279 0 -448.5 149t-169.5 394v967h315v-940q0 -129 83.5 -211t219.5 -82t219 82t83 211v940zM525 1642q-63 0 -108 44t-45 105t45 104t108 43t107 -43t44 -104t-44 -105t-107 -44zM970 1642q-63 0 -108 44
t-45 105t45 104t108 43t107 -43t44 -104t-44 -105t-107 -44z" />
    <glyph glyph-name="uni00DD" unicode="&#xdd;" horiz-adv-x="1483" 
d="M42 1489h353l340 -641h14l340 641h352l-543 -962v-527h-313v527zM631 1633l154 331h286l-222 -331h-218z" />
    <glyph glyph-name="uni00DE" unicode="&#xde;" horiz-adv-x="1373" 
d="M127 1489h314v-273h219q262 0 409 -126.5t147 -328.5t-146.5 -328t-409.5 -126h-219v-307h-314v1489zM441 548h219q127 0 191 59t64 151q0 94 -64 154t-191 60h-219v-424z" />
    <glyph glyph-name="uni00DF" unicode="&#xdf;" horiz-adv-x="1360" 
d="M129 0v1096q0 192 139.5 303t373.5 111q148 0 266.5 -44.5t192 -137.5t73.5 -221q0 -115 -57.5 -197t-157.5 -111v-16q144 -10 230.5 -112.5t85.5 -260.5q-1 -193 -132 -301.5t-347 -108.5h-196v252h146q99 0 157.5 51.5t57.5 136.5q-1 88 -65.5 140.5t-174.5 52.5h-115
v241h77q77 0 125 54.5t49 132.5q1 83 -54.5 136t-150.5 53q-96 0 -154.5 -54.5t-58.5 -144.5v-1051h-310z" />
    <glyph glyph-name="uni00E0" unicode="&#xe0;" horiz-adv-x="1188" 
d="M442 -21q-166 0 -268.5 86t-102.5 247q0 72 23 129t60.5 94t93.5 63t114 39t129 19l88.5 9t66.5 9t53.5 12t33.5 16t22.5 23t5.5 31v5q0 69 -43 106.5t-122 37.5q-80 0 -131.5 -35t-67.5 -93l-286 23q33 155 160 243.5t326 88.5q96 0 179.5 -22.5t150.5 -67t105.5 -119
t38.5 -170.5v-753h-294v155h-8q-43 -82 -125.5 -129t-201.5 -47zM531 193q101 0 167 59t66 147v119q-39 -27 -216 -50q-181 -25 -181 -146q0 -62 45 -95.5t119 -33.5zM501 1261l-222 331h286l155 -331h-219z" />
    <glyph glyph-name="uni00E1" unicode="&#xe1;" horiz-adv-x="1188" 
d="M442 -21q-166 0 -268.5 86t-102.5 247q0 72 23 129t60.5 94t93.5 63t114 39t129 19l88.5 9t66.5 9t53.5 12t33.5 16t22.5 23t5.5 31v5q0 69 -43 106.5t-122 37.5q-80 0 -131.5 -35t-67.5 -93l-286 23q33 155 160 243.5t326 88.5q96 0 179.5 -22.5t150.5 -67t105.5 -119
t38.5 -170.5v-753h-294v155h-8q-43 -82 -125.5 -129t-201.5 -47zM531 193q101 0 167 59t66 147v119q-39 -27 -216 -50q-181 -25 -181 -146q0 -62 45 -95.5t119 -33.5zM497 1261l155 331h286l-222 -331h-219z" />
    <glyph glyph-name="uni00E2" unicode="&#xe2;" horiz-adv-x="1188" 
d="M442 -21q-166 0 -268.5 86t-102.5 247q0 72 23 129t60.5 94t93.5 63t114 39t129 19l88.5 9t66.5 9t53.5 12t33.5 16t22.5 23t5.5 31v5q0 69 -43 106.5t-122 37.5q-80 0 -131.5 -35t-67.5 -93l-286 23q33 155 160 243.5t326 88.5q96 0 179.5 -22.5t150.5 -67t105.5 -119
t38.5 -170.5v-753h-294v155h-8q-43 -82 -125.5 -129t-201.5 -47zM755 1251l-146 177l-146 -177h-264v10l295 320h230l295 -320v-10h-264zM531 193q101 0 167 59t66 147v119q-39 -27 -216 -50q-181 -25 -181 -146q0 -62 45 -95.5t119 -33.5z" />
    <glyph glyph-name="uni00E3" unicode="&#xe3;" horiz-adv-x="1188" 
d="M442 -21q-166 0 -268.5 86t-102.5 247q0 72 23 129t60.5 94t93.5 63t114 39t129 19l88.5 9t66.5 9t53.5 12t33.5 16t22.5 23t5.5 31v5q0 69 -43 106.5t-122 37.5q-80 0 -131.5 -35t-67.5 -93l-286 23q33 155 160 243.5t326 88.5q96 0 179.5 -22.5t150.5 -67t105.5 -119
t38.5 -170.5v-753h-294v155h-8q-43 -82 -125.5 -129t-201.5 -47zM401 1255l-173 2q0 134 67 210.5t170 77.5q35 0 69.5 -11.5t50.5 -21t48 -31.5q62 -45 100 -45q41 1 63.5 31t23.5 81l169 -5q-1 -134 -67 -210t-169 -77q-38 0 -72.5 11t-51 21.5t-45.5 31.5q-60 45 -100 45
q-38 0 -60.5 -29.5t-22.5 -80.5zM531 193q101 0 167 59t66 147v119q-39 -27 -216 -50q-181 -25 -181 -146q0 -62 45 -95.5t119 -33.5z" />
    <glyph glyph-name="uni00E4" unicode="&#xe4;" horiz-adv-x="1188" 
d="M442 -21q-166 0 -268.5 86t-102.5 247q0 72 23 129t60.5 94t93.5 63t114 39t129 19l88.5 9t66.5 9t53.5 12t33.5 16t22.5 23t5.5 31v5q0 69 -43 106.5t-122 37.5q-80 0 -131.5 -35t-67.5 -93l-286 23q33 155 160 243.5t326 88.5q96 0 179.5 -22.5t150.5 -67t105.5 -119
t38.5 -170.5v-753h-294v155h-8q-43 -82 -125.5 -129t-201.5 -47zM531 193q101 0 167 59t66 147v119q-39 -27 -216 -50q-181 -25 -181 -146q0 -62 45 -95.5t119 -33.5zM387 1270q-63 0 -108 43.5t-45 104.5t45 104.5t108 43.5t107 -43t44 -105q0 -61 -44 -104.5t-107 -43.5z
M832 1270q-63 0 -108 43.5t-45 104.5t45 104.5t108 43.5t107 -43t44 -105q0 -61 -44 -104.5t-107 -43.5z" />
    <glyph glyph-name="uni00E5" unicode="&#xe5;" horiz-adv-x="1188" 
d="M442 -21q-166 0 -268.5 86t-102.5 247q0 72 23 129t60.5 94t93.5 63t114 39t129 19l88.5 9t66.5 9t53.5 12t33.5 16t22.5 23t5.5 31v5q0 69 -43 106.5t-122 37.5q-80 0 -131.5 -35t-67.5 -93l-286 23q33 155 160 243.5t326 88.5q96 0 179.5 -22.5t150.5 -67t105.5 -119
t38.5 -170.5v-753h-294v155h-8q-43 -82 -125.5 -129t-201.5 -47zM609 1237q-104 0 -177 69.5t-73 169.5q0 99 73.5 170.5t176.5 71.5q102 0 175 -71.5t73 -170.5q0 -100 -72.5 -169.5t-175.5 -69.5zM531 193q101 0 167 59t66 147v119q-39 -27 -216 -50q-181 -25 -181 -146
q0 -62 45 -95.5t119 -33.5zM609 1367q47 1 80 33.5t33 75.5q0 45 -33 78t-80 33q-48 -1 -81 -33.5t-33 -77.5q0 -44 33 -76.5t81 -32.5z" />
    <glyph glyph-name="uni00E6" unicode="&#xe6;" horiz-adv-x="1871" 
d="M1299 -22q-138 0 -245.5 53.5t-161.5 151.5h-8q-44 -93 -162 -148.5t-262 -55.5q-178 0 -283.5 86t-105.5 247q0 72 23 129t61 94t93.5 63t113.5 39t129 19q59 6 88.5 9.5t67 9.5t53.5 12t33 16t22.5 22.5t5.5 30.5v5q0 69 -43 106.5t-122 37.5q-80 0 -131.5 -35
t-67.5 -93l-286 23q34 156 161 244t330 88q101 0 186.5 -35t132.5 -111q128 146 346 146q112 0 207 -36t166.5 -105t112 -178.5t40.5 -248.5v-85h-762q0 -124 68.5 -197t184.5 -73q78 0 135 33.5t81 96.5l285 -19q-33 -156 -165 -249t-321 -93zM531 193q101 0 167 59t66 147
v119q-39 -27 -216 -50q-181 -25 -181 -146q0 -62 45 -95.5t119 -33.5zM1031 671h470q-1 100 -64.5 164.5t-163.5 64.5q-102 0 -169.5 -66t-72.5 -163z" />
    <glyph glyph-name="uni00E7" unicode="&#xe7;" horiz-adv-x="1202" 
d="M694 -19l-7 -38q78 -12 123.5 -57.5t46.5 -119.5q1 -110 -100.5 -173.5t-283.5 -63.5l-2 138q194 0 197 91q1 44 -33.5 67.5t-111.5 32.5l28 125q-221 25 -346.5 179.5t-125.5 391.5q0 260 148 419t400 159q218 0 354 -117t146 -311h-292q-13 85 -66.5 135.5t-136.5 50.5
q-110 0 -174.5 -87.5t-64.5 -243.5q0 -159 64.5 -247.5t174.5 -88.5q81 0 135.5 49t67.5 137h292q-10 -179 -125 -294.5t-308 -133.5z" />
    <glyph glyph-name="uni00E8" unicode="&#xe8;" horiz-adv-x="1224" 
d="M633 -22q-257 0 -405.5 154.5t-148.5 420.5q0 260 147.5 419.5t393.5 159.5q112 0 206.5 -36t166 -105t112 -178.5t40.5 -248.5v-85h-760q0 -125 68 -197.5t185 -72.5q78 0 134.5 33.5t79.5 96.5l287 -19q-33 -157 -167 -249.5t-339 -92.5zM385 671h469
q-1 100 -64.5 164.5t-164.5 64.5t-168 -66t-72 -163zM506 1261l-222 331h286l155 -331h-219z" />
    <glyph glyph-name="uni00E9" unicode="&#xe9;" horiz-adv-x="1224" 
d="M633 -22q-257 0 -405.5 154.5t-148.5 420.5q0 260 147.5 419.5t393.5 159.5q112 0 206.5 -36t166 -105t112 -178.5t40.5 -248.5v-85h-760q0 -125 68 -197.5t185 -72.5q78 0 134.5 33.5t79.5 96.5l287 -19q-33 -157 -167 -249.5t-339 -92.5zM385 671h469
q-1 100 -64.5 164.5t-164.5 64.5t-168 -66t-72 -163zM502 1261l154 331h287l-222 -331h-219z" />
    <glyph glyph-name="uni00EA" unicode="&#xea;" horiz-adv-x="1224" 
d="M633 -22q-257 0 -405.5 154.5t-148.5 420.5q0 260 147.5 419.5t393.5 159.5q112 0 206.5 -36t166 -105t112 -178.5t40.5 -248.5v-85h-760q0 -125 68 -197.5t185 -72.5q78 0 134.5 33.5t79.5 96.5l287 -19q-33 -157 -167 -249.5t-339 -92.5zM759 1251l-146 177l-146 -177
h-264v10l295 320h231l294 -320v-10h-264zM385 671h469q-1 100 -64.5 164.5t-164.5 64.5t-168 -66t-72 -163z" />
    <glyph glyph-name="uni00EB" unicode="&#xeb;" horiz-adv-x="1224" 
d="M633 -22q-257 0 -405.5 154.5t-148.5 420.5q0 260 147.5 419.5t393.5 159.5q112 0 206.5 -36t166 -105t112 -178.5t40.5 -248.5v-85h-760q0 -125 68 -197.5t185 -72.5q78 0 134.5 33.5t79.5 96.5l287 -19q-33 -157 -167 -249.5t-339 -92.5zM385 671h469
q-1 100 -64.5 164.5t-164.5 64.5t-168 -66t-72 -163zM391 1270q-63 0 -107.5 43.5t-44.5 104.5t44.5 104.5t107.5 43.5t107.5 -43.5t44.5 -104.5t-44.5 -104.5t-107.5 -43.5zM836 1270q-63 0 -107.5 43.5t-44.5 104.5t44.5 104.5t107.5 43.5t107.5 -43.5t44.5 -104.5
t-44.5 -104.5t-107.5 -43.5z" />
    <glyph glyph-name="uni00EC" unicode="&#xec;" horiz-adv-x="557" 
d="M124 0v1117h309v-1117h-309zM172 1261l-222 331h286l155 -331h-219z" />
    <glyph glyph-name="uni00ED" unicode="&#xed;" horiz-adv-x="557" 
d="M124 0v1117h309v-1117h-309zM168 1261l154 331h287l-222 -331h-219z" />
    <glyph glyph-name="uni00EE" unicode="&#xee;" horiz-adv-x="557" 
d="M124 0v1117h309v-1117h-309zM425 1251l-146 177l-146 -177h-264v10l295 320h231l294 -320v-10h-264z" />
    <glyph glyph-name="uni00EF" unicode="&#xef;" horiz-adv-x="557" 
d="M124 0v1117h309v-1117h-309zM57 1270q-63 0 -107.5 43.5t-44.5 104.5t44.5 104.5t107.5 43.5t107.5 -43.5t44.5 -104.5t-44.5 -104.5t-107.5 -43.5zM503 1270q-63 0 -108 43.5t-45 104.5t45 104.5t108 43.5t107 -43t44 -105q0 -61 -44 -104.5t-107 -43.5z" />
    <glyph glyph-name="uni00F0" unicode="&#xf0;" horiz-adv-x="1227" 
d="M952 1403l-164 -84q167 -140 264 -330t97 -416q0 -274 -145.5 -435t-394.5 -161q-239 0 -384.5 147.5t-145.5 387.5q0 225 126.5 373.5t326.5 148.5q95 0 169 -37t121 -95h16q-78 167 -257 312l-311 -159l-20 141l207 106q-104 65 -202 105l30 164q203 -49 382 -163
l265 135zM617 214q115 0 180.5 85t65.5 227q0 137 -63 225.5t-183 88.5q-118 0 -180.5 -85t-62.5 -225q0 -141 63.5 -228.5t179.5 -87.5z" />
    <glyph glyph-name="uni00F1" unicode="&#xf1;" horiz-adv-x="1273" 
d="M433 646v-646h-309v1117h295v-197h13q38 99 125.5 155.5t210.5 56.5q176 0 280.5 -113.5t104.5 -307.5v-711h-309v656q1 102 -52.5 160t-146.5 58q-95 0 -153 -61t-59 -167zM430 1255l-173 2q0 134 67 210.5t170 77.5q35 0 69.5 -11.5t50.5 -21t48 -31.5q62 -45 100 -45
q41 1 63.5 31t23.5 81l169 -5q-1 -134 -67 -210t-169 -77q-38 0 -72.5 11t-51 21.5t-45.5 31.5q-60 45 -100 45q-38 0 -60.5 -29.5t-22.5 -80.5z" />
    <glyph glyph-name="uni00F2" unicode="&#xf2;" horiz-adv-x="1256" 
d="M628 -22q-252 0 -400.5 158t-148.5 418q0 261 148.5 419.5t400.5 158.5q253 0 401.5 -158.5t148.5 -419.5q0 -260 -149 -418t-401 -158zM630 218q111 0 172 93.5t61 244.5t-61 245t-172 94q-114 0 -175.5 -94t-61.5 -245t61.5 -244.5t175.5 -93.5zM521 1261l-222 331h286
l155 -331h-219z" />
    <glyph glyph-name="uni00F3" unicode="&#xf3;" horiz-adv-x="1256" 
d="M628 -22q-252 0 -400.5 158t-148.5 418q0 261 148.5 419.5t400.5 158.5q253 0 401.5 -158.5t148.5 -419.5q0 -260 -149 -418t-401 -158zM630 218q111 0 172 93.5t61 244.5t-61 245t-172 94q-114 0 -175.5 -94t-61.5 -245t61.5 -244.5t175.5 -93.5zM517 1261l154 331h287
l-222 -331h-219z" />
    <glyph glyph-name="uni00F4" unicode="&#xf4;" horiz-adv-x="1256" 
d="M628 -22q-252 0 -400.5 158t-148.5 418q0 261 148.5 419.5t400.5 158.5q253 0 401.5 -158.5t148.5 -419.5q0 -260 -149 -418t-401 -158zM630 218q111 0 172 93.5t61 244.5t-61 245t-172 94q-114 0 -175.5 -94t-61.5 -245t61.5 -244.5t175.5 -93.5zM775 1251l-147 177
l-146 -177h-264v10l295 320h231l295 -320v-10h-264z" />
    <glyph glyph-name="uni00F5" unicode="&#xf5;" horiz-adv-x="1256" 
d="M628 -22q-252 0 -400.5 158t-148.5 418q0 261 148.5 419.5t400.5 158.5q253 0 401.5 -158.5t148.5 -419.5q0 -260 -149 -418t-401 -158zM630 218q111 0 172 93.5t61 244.5t-61 245t-172 94q-114 0 -175.5 -94t-61.5 -245t61.5 -244.5t175.5 -93.5zM420 1255l-172 2
q0 134 66.5 210.5t169.5 77.5q35 0 69.5 -11.5t50.5 -21t48 -31.5q62 -45 101 -45q41 1 63 31t23 81l170 -5q-1 -134 -67.5 -210t-169.5 -77q-38 0 -72 11t-50.5 21.5t-45.5 31.5q-60 45 -100 45q-38 0 -61 -29.5t-23 -80.5z" />
    <glyph glyph-name="uni00F6" unicode="&#xf6;" horiz-adv-x="1256" 
d="M628 -22q-252 0 -400.5 158t-148.5 418q0 261 148.5 419.5t400.5 158.5q253 0 401.5 -158.5t148.5 -419.5q0 -260 -149 -418t-401 -158zM630 218q111 0 172 93.5t61 244.5t-61 245t-172 94q-114 0 -175.5 -94t-61.5 -245t61.5 -244.5t175.5 -93.5zM407 1270
q-63 0 -108 43.5t-45 104.5t45 104.5t108 43.5t107 -43t44 -105q0 -61 -44 -104.5t-107 -43.5zM852 1270q-63 0 -108 43.5t-45 104.5t45 104.5t108 43.5t107 -43t44 -105q0 -61 -44 -104.5t-107 -43.5z" />
    <glyph glyph-name="uni00F7" unicode="&#xf7;" horiz-adv-x="1392" 
d="M1205 719v-246h-1018v246h1018zM696 16q-74 0 -125.5 52t-51.5 125q0 71 52 122t125 51q71 0 122 -51t51 -122q0 -73 -51 -125t-122 -52zM696 825q-73 0 -125 52t-52 125q0 72 52 122.5t125 50.5q72 0 122.5 -50.5t50.5 -122.5q0 -73 -50.5 -125t-122.5 -52z" />
    <glyph glyph-name="uni00F8" unicode="&#xf8;" horiz-adv-x="1256" 
d="M297 -71l-141 96l74 107q-151 157 -151 421q0 261 148 419t401 158q144 0 258 -54l72 104l143 -96l-75 -108q152 -160 152 -423q0 -260 -149 -418t-401 -158q-146 0 -259 55zM415 397l323 467q-49 30 -108 30q-114 0 -175.5 -94t-61.5 -245q0 -84 22 -158zM630 217
q111 0 172 93.5t61 244.5q0 87 -21 157l-323 -465q47 -30 111 -30z" />
    <glyph glyph-name="uni00F9" unicode="&#xf9;" horiz-adv-x="1273" 
d="M840 476v641h310v-1117h-298v203h-11q-38 -101 -127 -159.5t-212 -58.5q-170 0 -273.5 113.5t-104.5 307.5v711h309v-656q1 -99 53.5 -156.5t140.5 -57.5q89 0 151.5 61t61.5 168zM531 1261l-222 331h286l155 -331h-219z" />
    <glyph glyph-name="uni00FA" unicode="&#xfa;" horiz-adv-x="1273" 
d="M840 476v641h310v-1117h-298v203h-11q-38 -101 -127 -159.5t-212 -58.5q-170 0 -273.5 113.5t-104.5 307.5v711h309v-656q1 -99 53.5 -156.5t140.5 -57.5q89 0 151.5 61t61.5 168zM527 1261l154 331h286l-222 -331h-218z" />
    <glyph glyph-name="uni00FB" unicode="&#xfb;" horiz-adv-x="1273" 
d="M840 476v641h310v-1117h-298v203h-11q-38 -101 -127 -159.5t-212 -58.5q-170 0 -273.5 113.5t-104.5 307.5v711h309v-656q1 -99 53.5 -156.5t140.5 -57.5q89 0 151.5 61t61.5 168zM785 1251l-146 177l-147 -177h-264v10l296 320h230l295 -320v-10h-264z" />
    <glyph glyph-name="uni00FC" unicode="&#xfc;" horiz-adv-x="1273" 
d="M840 476v641h310v-1117h-298v203h-11q-38 -101 -127 -159.5t-212 -58.5q-170 0 -273.5 113.5t-104.5 307.5v711h309v-656q1 -99 53.5 -156.5t140.5 -57.5q89 0 151.5 61t61.5 168zM417 1270q-63 0 -108 43.5t-45 104.5t45 104.5t108 43.5t107 -43t44 -105
q0 -61 -44 -104.5t-107 -43.5zM862 1270q-63 0 -108 43.5t-45 104.5t45 104.5t108 43.5t107 -43t44 -105q0 -61 -44 -104.5t-107 -43.5z" />
    <glyph glyph-name="uni00FD" unicode="&#xfd;" horiz-adv-x="1200" 
d="M315 -419q-121 0 -195 32l70 231q80 -29 139 -13t88 90l19 47l-401 1149h326l231 -820h12l233 820h328l-434 -1238q-104 -298 -416 -298zM487 1261l154 331h286l-222 -331h-218z" />
    <glyph glyph-name="uni00FE" unicode="&#xfe;" horiz-adv-x="1255" 
d="M124 1489h309v-501h14q31 64 100 104t173 40q93 0 174 -36.5t143.5 -106t99 -181t36.5 -251.5q0 -137 -35 -247.5t-97 -181.5t-144 -108.5t-177 -37.5q-102 0 -171.5 38.5t-101.5 102.5h-14v-542h-309v1908zM879 559q0 154 -62.5 240t-183.5 86q-120 0 -175 -88.5
t-55 -237.5q0 -96 21 -167.5t74 -117.5t135 -46q121 0 183.5 88t62.5 243z" />
    <glyph glyph-name="uni00FF" unicode="&#xff;" horiz-adv-x="1200" 
d="M315 -419q-121 0 -195 32l70 231q80 -29 139 -13t88 90l19 47l-401 1149h326l231 -820h12l233 820h328l-434 -1238q-104 -298 -416 -298zM377 1270q-63 0 -108 43.5t-45 104.5t45 104.5t108 43.5t107 -43t44 -105q0 -61 -44 -104.5t-107 -43.5zM822 1270q-63 0 -108 43.5
t-45 104.5t45 104.5t108 43.5t107 -43t44 -105q0 -61 -44 -104.5t-107 -43.5z" />
    <glyph glyph-name="uni0100" unicode="&#x100;" horiz-adv-x="1531" 
d="M386 0h-337l514 1489h406l513 -1489h-337l-111 340h-537zM1120 1862v-168h-708v168h708zM577 585h378l-183 564h-12z" />
    <glyph glyph-name="uni0101" unicode="&#x101;" horiz-adv-x="1188" 
d="M442 -21q-166 0 -268.5 86t-102.5 247q0 72 23 129t60.5 94t93.5 63t114 39t129 19l88.5 9t66.5 9t53.5 12t33.5 16t22.5 23t5.5 31v5q0 69 -43 106.5t-122 37.5q-80 0 -131.5 -35t-67.5 -93l-286 23q33 155 160 243.5t326 88.5q96 0 179.5 -22.5t150.5 -67t105.5 -119
t38.5 -170.5v-753h-294v155h-8q-43 -82 -125.5 -129t-201.5 -47zM963 1489v-168h-708v168h708zM531 193q101 0 167 59t66 147v119q-39 -27 -216 -50q-181 -25 -181 -146q0 -62 45 -95.5t119 -33.5z" />
    <glyph glyph-name="uni0102" unicode="&#x102;" horiz-adv-x="1531" 
d="M386 0h-337l514 1489h406l513 -1489h-337l-111 340h-537zM910 1879h216q-1 -133 -98.5 -213.5t-261.5 -80.5t-261.5 80.5t-97.5 213.5h214q-1 -55 35 -92.5t110 -37.5q73 0 108.5 37t35.5 93zM577 585h378l-183 564h-12z" />
    <glyph glyph-name="uni0103" unicode="&#x103;" horiz-adv-x="1188" 
d="M442 -21q-166 0 -268.5 86t-102.5 247q0 72 23 129t60.5 94t93.5 63t114 39t129 19l88.5 9t66.5 9t53.5 12t33.5 16t22.5 23t5.5 31v5q0 69 -43 106.5t-122 37.5q-80 0 -131.5 -35t-67.5 -93l-286 23q33 155 160 243.5t326 88.5q96 0 179.5 -22.5t150.5 -67t105.5 -119
t38.5 -170.5v-753h-294v155h-8q-43 -82 -125.5 -129t-201.5 -47zM753 1507h216q-1 -133 -98.5 -213.5t-261.5 -80.5t-262 80.5t-98 213.5h215q-1 -55 35 -92.5t110 -37.5q73 0 108.5 37t35.5 93zM531 193q101 0 167 59t66 147v119q-39 -27 -216 -50q-181 -25 -181 -146
q0 -62 45 -95.5t119 -33.5z" />
    <glyph glyph-name="uni0104" unicode="&#x104;" horiz-adv-x="1531" 
d="M386 0h-337l514 1489h406l513 -1489h1q-76 -36 -116 -73t-39 -86q-2 -72 71 -72q27 0 76 17l32 -160q-77 -43 -166 -43q-98 0 -162.5 50t-81.5 142q-25 126 50 225h-2l-111 340h-537zM577 585h378l-183 564h-12z" />
    <glyph glyph-name="uni0105" unicode="&#x105;" horiz-adv-x="1188" 
d="M442 -21q-166 0 -268.5 86t-102.5 247q0 72 23 129t60.5 94t93.5 63t114 39t129 19l88.5 9t66.5 9t53.5 12t33.5 16t22.5 23t5.5 31v5q0 69 -43 106.5t-122 37.5q-80 0 -131.5 -35t-67.5 -93l-286 23q33 155 160 243.5t326 88.5q96 0 179.5 -22.5t150.5 -67t105.5 -119
t38.5 -170.5v-753q-76 -36 -116 -73t-39 -86q-2 -72 71 -72q27 0 76 17l32 -160q-77 -43 -166 -43q-97 0 -161.5 50t-81.5 142q-15 75 8.5 147.5t82.5 121.5v111h-8q-43 -82 -125.5 -129t-201.5 -47zM531 193q101 0 167 59t66 147v119q-39 -27 -216 -50q-181 -25 -181 -146
q0 -62 45 -95.5t119 -33.5z" />
    <glyph glyph-name="uni0106" unicode="&#x106;" horiz-adv-x="1540" 
d="M1444 968h-319q-18 122 -104.5 192.5t-216.5 70.5q-175 0 -278 -128t-103 -358q0 -234 102.5 -360.5t276.5 -126.5q127 0 214 66.5t109 184.5l319 -1q-13 -104 -62.5 -198t-129.5 -168.5t-198 -118t-257 -43.5q-150 0 -277 52t-219.5 148t-145 241t-52.5 324t53 324.5
t146.5 241.5t220 147.5t274.5 51.5q263 0 440 -144t207 -398zM686 1633l154 331h287l-222 -331h-219z" />
    <glyph glyph-name="uni0107" unicode="&#x107;" horiz-adv-x="1202" 
d="M628 -22q-254 0 -401.5 158.5t-147.5 417.5q0 260 148 419t400 159q218 0 354 -117t146 -311h-292q-13 85 -66.5 135.5t-136.5 50.5q-110 0 -174.5 -87.5t-64.5 -243.5q0 -159 64.5 -247.5t174.5 -88.5q81 0 135.5 49t67.5 137h292q-11 -195 -145 -313t-354 -118z
M516 1261l155 331h286l-222 -331h-219z" />
    <glyph glyph-name="uni0108" unicode="&#x108;" horiz-adv-x="1540" 
d="M1444 968h-319q-18 122 -104.5 192.5t-216.5 70.5q-175 0 -278 -128t-103 -358q0 -234 102.5 -360.5t276.5 -126.5q127 0 214 66.5t109 184.5l319 -1q-13 -104 -62.5 -198t-129.5 -168.5t-198 -118t-257 -43.5q-150 0 -277 52t-219.5 148t-145 241t-52.5 324t53 324.5
t146.5 241.5t220 147.5t274.5 51.5q263 0 440 -144t207 -398zM943 1623l-146 178l-146 -178h-264v10l295 320h231l294 -320v-10h-264z" />
    <glyph glyph-name="uni0109" unicode="&#x109;" horiz-adv-x="1202" 
d="M628 -22q-254 0 -401.5 158.5t-147.5 417.5q0 260 148 419t400 159q218 0 354 -117t146 -311h-292q-13 85 -66.5 135.5t-136.5 50.5q-110 0 -174.5 -87.5t-64.5 -243.5q0 -159 64.5 -247.5t174.5 -88.5q81 0 135.5 49t67.5 137h292q-11 -195 -145 -313t-354 -118z
M774 1251l-146 177l-147 -177h-264v10l296 320h230l295 -320v-10h-264z" />
    <glyph glyph-name="uni010A" unicode="&#x10a;" horiz-adv-x="1540" 
d="M1444 968h-319q-18 122 -104.5 192.5t-216.5 70.5q-175 0 -278 -128t-103 -358q0 -234 102.5 -360.5t276.5 -126.5q127 0 214 66.5t109 184.5l319 -1q-13 -104 -62.5 -198t-129.5 -168.5t-198 -118t-257 -43.5q-150 0 -277 52t-219.5 148t-145 241t-52.5 324t53 324.5
t146.5 241.5t220 147.5t274.5 51.5q263 0 440 -144t207 -398zM797 1633q-69 0 -118 46.5t-49 111.5q0 64 49 110t118 46t118.5 -46t49.5 -110q0 -65 -49.5 -111.5t-118.5 -46.5z" />
    <glyph glyph-name="uni010B" unicode="&#x10b;" horiz-adv-x="1202" 
d="M628 -22q-254 0 -401.5 158.5t-147.5 417.5q0 260 148 419t400 159q218 0 354 -117t146 -311h-292q-13 85 -66.5 135.5t-136.5 50.5q-110 0 -174.5 -87.5t-64.5 -243.5q0 -159 64.5 -247.5t174.5 -88.5q81 0 135.5 49t67.5 137h292q-11 -195 -145 -313t-354 -118z
M628 1261q-69 0 -118.5 46t-49.5 111q0 64 49.5 110.5t118.5 46.5t118.5 -46.5t49.5 -110.5q0 -65 -49.5 -111t-118.5 -46z" />
    <glyph glyph-name="uni010C" unicode="&#x10c;" horiz-adv-x="1540" 
d="M1444 968h-319q-18 122 -104.5 192.5t-216.5 70.5q-175 0 -278 -128t-103 -358q0 -234 102.5 -360.5t276.5 -126.5q127 0 214 66.5t109 184.5l319 -1q-13 -104 -62.5 -198t-129.5 -168.5t-198 -118t-257 -43.5q-150 0 -277 52t-219.5 148t-145 241t-52.5 324t53 324.5
t146.5 241.5t220 147.5t274.5 51.5q263 0 440 -144t207 -398zM651 1953l146 -177l146 177h264v-10l-295 -320h-231l-294 320v10h264z" />
    <glyph glyph-name="uni010D" unicode="&#x10d;" horiz-adv-x="1202" 
d="M628 -22q-254 0 -401.5 158.5t-147.5 417.5q0 260 148 419t400 159q218 0 354 -117t146 -311h-292q-13 85 -66.5 135.5t-136.5 50.5q-110 0 -174.5 -87.5t-64.5 -243.5q0 -159 64.5 -247.5t174.5 -88.5q81 0 135.5 49t67.5 137h292q-11 -195 -145 -313t-354 -118z
M481 1581l147 -177l146 177h264v-10l-295 -320h-231l-295 320v10h264z" />
    <glyph glyph-name="uni010E" unicode="&#x10e;" horiz-adv-x="1489" 
d="M657 0h-528v1489h533q337 0 530.5 -198t193.5 -545q0 -349 -194 -547.5t-535 -198.5zM444 270h200q214 0 321 115.5t107 360.5q0 244 -107 359t-320 115h-201v-950zM457 1953l146 -177l146 177h264v-10l-295 -320h-231l-294 320v10h264z" />
    <glyph glyph-name="uni010F" unicode="&#x10f;" horiz-adv-x="1507" 
d="M535 -18q-96 0 -178.5 38t-143.5 109t-96 181t-35 247q0 140 36 251t99 181t144 106.5t174 36.5q67 0 122 -18t92 -50t61.5 -64.5t41.5 -70.5h10v560h309v-1489h-306v179h-13q-38 -83 -116 -140t-201 -57zM633 228q110 0 172.5 90t62.5 241t-61.5 238.5t-173.5 87.5
t-173 -89t-61 -237q0 -150 61.5 -240.5t172.5 -90.5zM1298 1183v384h233l-52 -384h-181z" />
    <glyph glyph-name="uni0110" unicode="&#x110;" horiz-adv-x="1489" 
d="M657 0h-528v694h-207v182h207v613h533q337 0 530.5 -198t193.5 -545q0 -349 -194 -547.5t-535 -198.5zM444 270h200q214 0 321 115.5t107 360.5q0 244 -107 359t-320 115h-201v-344h204v-182h-204v-424z" />
    <glyph glyph-name="uni0111" unicode="&#x111;" horiz-adv-x="1301" 
d="M535 -18q-96 0 -178.5 38t-143.5 109t-96 181t-35 247q0 140 36 251t99 181t144 106.5t174 36.5q67 0 122 -18t92 -50t61.5 -64.5t41.5 -70.5h10v264h-290v183h290v113h309v-113h127v-183h-127v-1193h-306v179h-13q-38 -83 -116 -140t-201 -57zM633 228q110 0 172.5 90
t62.5 241t-61.5 238.5t-173.5 87.5t-173 -89t-61 -237q0 -150 61.5 -240.5t172.5 -90.5z" />
    <glyph glyph-name="uni0112" unicode="&#x112;" horiz-adv-x="1254" 
d="M129 0v1489h1004v-259h-689v-355h637v-260h-637v-355h692v-260h-1007zM988 1862v-168h-709v168h709z" />
    <glyph glyph-name="uni0113" unicode="&#x113;" horiz-adv-x="1224" 
d="M633 -22q-257 0 -405.5 154.5t-148.5 420.5q0 260 147.5 419.5t393.5 159.5q112 0 206.5 -36t166 -105t112 -178.5t40.5 -248.5v-85h-760q0 -125 68 -197.5t185 -72.5q78 0 134.5 33.5t79.5 96.5l287 -19q-33 -157 -167 -249.5t-339 -92.5zM967 1489v-168h-708v168h708z
M385 671h469q-1 100 -64.5 164.5t-164.5 64.5t-168 -66t-72 -163z" />
    <glyph glyph-name="uni0114" unicode="&#x114;" horiz-adv-x="1254" 
d="M129 0v1489h1004v-259h-689v-355h637v-260h-637v-355h692v-260h-1007zM777 1879h216q-1 -133 -98.5 -213.5t-261.5 -80.5t-261.5 80.5t-97.5 213.5h215q-1 -56 34.5 -93t109.5 -37q73 0 108.5 37t35.5 93z" />
    <glyph glyph-name="uni0115" unicode="&#x115;" horiz-adv-x="1224" 
d="M633 -22q-257 0 -405.5 154.5t-148.5 420.5q0 260 147.5 419.5t393.5 159.5q112 0 206.5 -36t166 -105t112 -178.5t40.5 -248.5v-85h-760q0 -125 68 -197.5t185 -72.5q78 0 134.5 33.5t79.5 96.5l287 -19q-33 -157 -167 -249.5t-339 -92.5zM757 1507h216
q-1 -133 -98.5 -213.5t-261.5 -80.5t-261.5 80.5t-97.5 213.5h214q-1 -55 35 -92.5t110 -37.5q73 0 108.5 37t35.5 93zM385 671h469q-1 100 -64.5 164.5t-164.5 64.5t-168 -66t-72 -163z" />
    <glyph glyph-name="uni0116" unicode="&#x116;" horiz-adv-x="1254" 
d="M129 0v1489h1004v-259h-689v-355h637v-260h-637v-355h692v-260h-1007zM633 1633q-69 0 -118 46.5t-49 111.5q0 64 49 110t118 46t118.5 -46t49.5 -110q0 -65 -49.5 -111.5t-118.5 -46.5z" />
    <glyph glyph-name="uni0117" unicode="&#x117;" horiz-adv-x="1224" 
d="M633 -22q-257 0 -405.5 154.5t-148.5 420.5q0 260 147.5 419.5t393.5 159.5q112 0 206.5 -36t166 -105t112 -178.5t40.5 -248.5v-85h-760q0 -125 68 -197.5t185 -72.5q78 0 134.5 33.5t79.5 96.5l287 -19q-33 -157 -167 -249.5t-339 -92.5zM385 671h469
q-1 100 -64.5 164.5t-164.5 64.5t-168 -66t-72 -163zM613 1261q-69 0 -118 46t-49 111t49 111t118 46t118.5 -46.5t49.5 -110.5q0 -65 -49.5 -111t-118.5 -46z" />
    <glyph glyph-name="uni0118" unicode="&#x118;" horiz-adv-x="1254" 
d="M129 0v1489h1004v-259h-689v-355h637v-260h-637v-355h692v-260h1q-76 -36 -116 -73t-39 -86q-2 -72 70 -72q28 0 77 17l32 -160q-77 -43 -166 -43q-98 0 -162.5 50t-81.5 142q-25 126 50 225h-672z" />
    <glyph glyph-name="uni0119" unicode="&#x119;" horiz-adv-x="1224" 
d="M740 -388q-98 0 -162.5 50t-81.5 142q-19 97 23 183q-207 33 -323.5 182.5t-116.5 383.5q0 260 147.5 419.5t393.5 159.5q112 0 206.5 -36t166 -105t112 -178.5t40.5 -248.5v-85h-760q0 -125 68 -197.5t185 -72.5q78 0 134.5 33.5t79.5 96.5l287 -19
q-24 -114 -103 -195.5t-202 -118.5q-108 -60 -107 -135q-2 -72 70 -72q27 0 76 17l32 -160q-79 -44 -165 -44zM385 671h469q-1 100 -64.5 164.5t-164.5 64.5t-168 -66t-72 -163z" />
    <glyph glyph-name="uni011A" unicode="&#x11a;" horiz-adv-x="1254" 
d="M129 0v1489h1004v-259h-689v-355h637v-260h-637v-355h692v-260h-1007zM487 1953l146 -177l147 177h264v-10l-296 -320h-230l-295 320v10h264z" />
    <glyph glyph-name="uni011B" unicode="&#x11b;" horiz-adv-x="1224" 
d="M633 -22q-257 0 -405.5 154.5t-148.5 420.5q0 260 147.5 419.5t393.5 159.5q112 0 206.5 -36t166 -105t112 -178.5t40.5 -248.5v-85h-760q0 -125 68 -197.5t185 -72.5q78 0 134.5 33.5t79.5 96.5l287 -19q-33 -157 -167 -249.5t-339 -92.5zM467 1581l146 -177l146 177
h264v-10l-295 -320h-231l-294 320v10h264zM385 671h469q-1 100 -64.5 164.5t-164.5 64.5t-168 -66t-72 -163z" />
    <glyph glyph-name="uni011C" unicode="&#x11c;" horiz-adv-x="1557" 
d="M1117 1008q-30 106 -111 164.5t-201 58.5q-174 0 -278 -128t-104 -357q0 -231 103 -359.5t282 -128.5q156 0 246.5 81t93.5 221h-320v237h623v-188q0 -145 -48 -263.5t-133 -198.5t-204 -123.5t-259 -43.5q-318 0 -511 206.5t-193 556.5q0 177 53.5 323t147.5 242.5
t221.5 149t274.5 52.5q252 0 429 -140t208 -362h-320zM940 1623l-147 178l-146 -178h-264v10l296 320h230l295 -320v-10h-264z" />
    <glyph glyph-name="uni011D" unicode="&#x11d;" horiz-adv-x="1296" 
d="M627 -442q-217 0 -349.5 86.5t-161.5 224.5l287 39q21 -56 78 -92t153 -36q108 0 170.5 51.5t62.5 161.5v205h-13q-35 -78 -115 -130t-204 -52q-96 0 -177.5 33.5t-143.5 99t-97 171t-35 241.5q0 138 36 248.5t98.5 180t144 106t174.5 36.5q67 0 122.5 -18.5t93 -50
t62 -64t41.5 -70.5h11v188h308v-1128q0 -208 -149.5 -319.5t-396.5 -111.5zM633 249q112 0 173.5 82.5t61.5 230.5q0 149 -61.5 236t-173.5 87t-173 -88.5t-61 -234.5q0 -147 60.5 -230t173.5 -83zM780 1251l-146 177l-146 -177h-264v10l295 320h231l294 -320v-10h-264z" />
    <glyph glyph-name="uni011E" unicode="&#x11e;" horiz-adv-x="1557" 
d="M1117 1008q-30 106 -111 164.5t-201 58.5q-174 0 -278 -128t-104 -357q0 -231 103 -359.5t282 -128.5q156 0 246.5 81t93.5 221h-320v237h623v-188q0 -145 -48 -263.5t-133 -198.5t-204 -123.5t-259 -43.5q-318 0 -511 206.5t-193 556.5q0 177 53.5 323t147.5 242.5
t221.5 149t274.5 52.5q252 0 429 -140t208 -362h-320zM937 1879h216q-1 -133 -98.5 -213.5t-261.5 -80.5t-261.5 80.5t-97.5 213.5h215q-1 -56 34.5 -93t109.5 -37q73 0 108.5 37t35.5 93z" />
    <glyph glyph-name="uni011F" unicode="&#x11f;" horiz-adv-x="1296" 
d="M627 -442q-217 0 -349.5 86.5t-161.5 224.5l287 39q21 -56 78 -92t153 -36q108 0 170.5 51.5t62.5 161.5v205h-13q-35 -78 -115 -130t-204 -52q-96 0 -177.5 33.5t-143.5 99t-97 171t-35 241.5q0 138 36 248.5t98.5 180t144 106t174.5 36.5q67 0 122.5 -18.5t93 -50
t62 -64t41.5 -70.5h11v188h308v-1128q0 -208 -149.5 -319.5t-396.5 -111.5zM633 249q112 0 173.5 82.5t61.5 230.5q0 149 -61.5 236t-173.5 87t-173 -88.5t-61 -234.5q0 -147 60.5 -230t173.5 -83zM778 1507h216q-1 -133 -98.5 -213.5t-261.5 -80.5t-261.5 80.5t-97.5 213.5
h214q-1 -55 35 -92.5t110 -37.5q73 0 108.5 37t35.5 93z" />
    <glyph glyph-name="uni0120" unicode="&#x120;" horiz-adv-x="1557" 
d="M1117 1008q-30 106 -111 164.5t-201 58.5q-174 0 -278 -128t-104 -357q0 -231 103 -359.5t282 -128.5q156 0 246.5 81t93.5 221h-320v237h623v-188q0 -145 -48 -263.5t-133 -198.5t-204 -123.5t-259 -43.5q-318 0 -511 206.5t-193 556.5q0 177 53.5 323t147.5 242.5
t221.5 149t274.5 52.5q252 0 429 -140t208 -362h-320zM793 1633q-69 0 -118.5 46.5t-49.5 111.5q0 64 49.5 110t118.5 46t118.5 -46t49.5 -110q0 -65 -49.5 -111.5t-118.5 -46.5z" />
    <glyph glyph-name="uni0121" unicode="&#x121;" horiz-adv-x="1296" 
d="M627 -442q-217 0 -349.5 86.5t-161.5 224.5l287 39q21 -56 78 -92t153 -36q108 0 170.5 51.5t62.5 161.5v205h-13q-35 -78 -115 -130t-204 -52q-96 0 -177.5 33.5t-143.5 99t-97 171t-35 241.5q0 138 36 248.5t98.5 180t144 106t174.5 36.5q67 0 122.5 -18.5t93 -50
t62 -64t41.5 -70.5h11v188h308v-1128q0 -208 -149.5 -319.5t-396.5 -111.5zM633 249q112 0 173.5 82.5t61.5 230.5q0 149 -61.5 236t-173.5 87t-173 -88.5t-61 -234.5q0 -147 60.5 -230t173.5 -83zM634 1261q-69 0 -118 46t-49 111t49 111t118 46t118.5 -46.5t49.5 -110.5
q0 -65 -49.5 -111t-118.5 -46z" />
    <glyph glyph-name="uni0122" unicode="&#x122;" horiz-adv-x="1557" 
d="M1117 1008q-30 106 -111 164.5t-201 58.5q-174 0 -278 -128t-104 -357q0 -231 103 -359.5t282 -128.5q156 0 246.5 81t93.5 221h-320v237h623v-188q0 -145 -48 -263.5t-133 -198.5t-204 -123.5t-259 -43.5q-318 0 -511 206.5t-193 556.5q0 177 53.5 323t147.5 242.5
t221.5 149t274.5 52.5q252 0 429 -140t208 -362h-320zM559 -473l90 359h286l-159 -359h-217z" />
    <glyph glyph-name="uni0123" unicode="&#x123;" horiz-adv-x="1296" 
d="M627 -442q-217 0 -349.5 86.5t-161.5 224.5l287 39q21 -56 78 -92t153 -36q108 0 170.5 51.5t62.5 161.5v205h-13q-35 -78 -115 -130t-204 -52q-96 0 -177.5 33.5t-143.5 99t-97 171t-35 241.5q0 138 36 248.5t98.5 180t144 106t174.5 36.5q67 0 122.5 -18.5t93 -50
t62 -64t41.5 -70.5h11v188h308v-1128q0 -208 -149.5 -319.5t-396.5 -111.5zM633 249q112 0 173.5 82.5t61.5 230.5q0 149 -61.5 236t-173.5 87t-173 -88.5t-61 -234.5q0 -147 60.5 -230t173.5 -83zM513 1272v139q0 109 42 196t107 130l155 -77q-68 -114 -68 -261l-3 -127
h-233z" />
    <glyph glyph-name="uni0124" unicode="&#x124;" horiz-adv-x="1528" 
d="M129 0v1489h315v-614h640v614h314v-1489h-314v615h-640v-615h-315zM913 1625l-146 177l-146 -177h-264v10l295 320h231l294 -320v-10h-264z" />
    <glyph glyph-name="uni0125" unicode="&#x125;" horiz-adv-x="1278" 
d="M433 646v-646h-309v1489h301v-569h13q39 101 124 156.5t210 55.5q176 0 281.5 -113t104.5 -308v-711h-310v656q1 103 -51.5 160.5t-147.5 57.5q-97 0 -156 -61t-60 -167zM422 1623l-146 178l-147 -178h-264v10l296 320h230l295 -320v-10h-264z" />
    <glyph glyph-name="uni0126" unicode="&#x126;" horiz-adv-x="1659" 
d="M1587 1231v-176h-124v-1055h-314v615h-639v-615h-315v1055h-122v176h122v258h315v-258h639v258h314v-258h124zM1149 1055h-639v-180h639v180z" />
    <glyph glyph-name="uni0127" unicode="&#x127;" horiz-adv-x="1278" 
d="M433 646v-646h-309v1198h-214v182h214v109h301v-109h211v-182h-211v-278h13q39 101 124 156.5t210 55.5q176 0 281.5 -113t104.5 -308v-711h-310v656q1 103 -51.5 160.5t-147.5 57.5q-97 0 -156 -61t-60 -167z" />
    <glyph glyph-name="uni0128" unicode="&#x128;" horiz-adv-x="923" 
d="M617 1489v-1489h-314v1489h314zM253 1627l-172 2q0 134 66.5 210.5t169.5 77.5q35 0 69.5 -11.5t50.5 -21t48 -31.5q62 -45 100 -45q41 1 63.5 31.5t23.5 81.5l169 -5q-1 -134 -67.5 -210.5t-168.5 -77.5q-38 0 -72.5 11t-51 21.5t-45.5 31.5q-21 16 -32.5 23.5t-30 14.5
t-36.5 7q-38 0 -61 -29.5t-23 -80.5z" />
    <glyph glyph-name="uni0129" unicode="&#x129;" horiz-adv-x="591" 
d="M141 0v1117h310v-1117h-310zM89 1255l-173 2q0 134 67 210.5t170 77.5q35 0 69.5 -11.5t50.5 -21t48 -31.5q62 -45 100 -45q41 1 63.5 31t23.5 81l169 -5q-1 -134 -67 -210t-169 -77q-38 0 -72.5 11t-51 21.5t-45.5 31.5q-60 45 -100 45q-38 0 -60.5 -29.5t-22.5 -80.5z
" />
    <glyph glyph-name="uni012A" unicode="&#x12a;" horiz-adv-x="574" 
d="M444 1489v-1489h-315v1489h315zM642 1862v-168h-708v168h708z" />
    <glyph glyph-name="uni012B" unicode="&#x12b;" horiz-adv-x="557" 
d="M124 0v1117h309v-1117h-309zM633 1489v-168h-708v168h708z" />
    <glyph glyph-name="uni012C" unicode="&#x12c;" horiz-adv-x="574" 
d="M444 1489v-1489h-315v1489h315zM432 1879h216q-1 -133 -98.5 -213.5t-261.5 -80.5t-261.5 80.5t-97.5 213.5h214q-1 -55 35 -92.5t110 -37.5q73 0 108.5 37t35.5 93z" />
    <glyph glyph-name="uni012D" unicode="&#x12d;" horiz-adv-x="557" 
d="M124 0v1117h309v-1117h-309zM423 1507h216q-1 -133 -98.5 -213.5t-261.5 -80.5t-261.5 80.5t-97.5 213.5h215q-1 -56 34.5 -93t109.5 -37q73 0 108.5 37t35.5 93z" />
    <glyph glyph-name="uni012E" unicode="&#x12e;" horiz-adv-x="574" 
d="M444 1489v-1489q-76 -36 -116 -73t-39 -86q-2 -72 71 -72q27 0 76 17l32 -160q-77 -43 -165 -43q-98 0 -162.5 50t-81.5 142q-13 67 4.5 134t65.5 116v1464h315z" />
    <glyph glyph-name="uni012F" unicode="&#x12f;" horiz-adv-x="574" 
d="M278 -417q-98 0 -162.5 50t-81.5 142q-13 69 6.5 137.5t69.5 117.5v1087h310v-1117q-76 -36 -116 -73t-39 -86q-2 -72 70 -72q28 0 77 17l32 -160q-77 -43 -166 -43zM265 1261q-69 0 -118.5 46t-49.5 111q0 64 49.5 110.5t118.5 46.5t118.5 -46.5t49.5 -110.5
q0 -65 -49.5 -111t-118.5 -46z" />
    <glyph glyph-name="uni0130" unicode="&#x130;" horiz-adv-x="574" 
d="M444 1489v-1489h-315v1489h315zM288 1633q-69 0 -118 46.5t-49 111.5q0 64 49 110t118 46t118.5 -46t49.5 -110q0 -65 -49.5 -111.5t-118.5 -46.5z" />
    <glyph glyph-name="uni0131" unicode="&#x131;" horiz-adv-x="557" 
d="M124 0v1117h309v-1117h-309z" />
    <glyph glyph-name="uni0132" unicode="&#x132;" horiz-adv-x="1741" 
d="M1300 1489h312v-1038q-1 -215 -141 -343t-368 -128q-103 0 -189.5 27.5t-152 80.5t-102 137.5t-36.5 193.5h313q1 -88 50.5 -137.5t132.5 -49.5q87 0 133.5 56t47.5 163v1038zM444 1489v-1489h-315v1489h315z" />
    <glyph glyph-name="uni0133" unicode="&#x133;" horiz-adv-x="1114" 
d="M681 1117h310v-1172q0 -364 -424 -364q-16 0 -62 2v242q32 -2 40 -2q73 0 104.5 31t31.5 96v1167zM124 0v1117h309v-1117h-309zM279 1261q-69 0 -118 46t-49 111t49 111t118 46t118.5 -46.5t49.5 -110.5q0 -65 -49.5 -111t-118.5 -46zM835 1261q-69 0 -118 46t-49 111
t49 111t118 46t118.5 -46.5t49.5 -110.5q0 -65 -49.5 -111t-118.5 -46z" />
    <glyph glyph-name="uni0134" unicode="&#x134;" horiz-adv-x="1167" 
d="M726 1489h311v-1038q-1 -215 -140.5 -343t-367.5 -128q-103 0 -189.5 27.5t-152.5 80.5t-102.5 137.5t-36.5 193.5h313q1 -88 51 -137.5t133 -49.5q87 0 133.5 56t47.5 163v1038zM1027 1623l-146 178l-146 -178h-264v10l295 320h230l295 -320v-10h-264z" />
    <glyph glyph-name="uni0135" unicode="&#x135;" horiz-adv-x="557" 
d="M124 1117h309v-1172q0 -364 -423 -364q-16 0 -62 2v242q32 -2 40 -2q73 0 104.5 31t31.5 96v1167zM425 1251l-146 177l-147 -177h-264v10l296 320h230l295 -320v-10h-264z" />
    <glyph glyph-name="uni0136" unicode="&#x136;" horiz-adv-x="1412" 
d="M129 0v1489h315v-656h20l536 656h377l-552 -666l559 -823h-377l-408 612l-155 -189v-423h-315zM469 -476l90 360h287l-159 -360h-218z" />
    <glyph glyph-name="uni0137" unicode="&#x137;" horiz-adv-x="1191" 
d="M124 0v1489h309v-796h17l358 424h356l-415 -484l436 -633h-363l-305 450l-84 -95v-355h-309zM376 -477l90 359h287l-160 -359h-217z" />
    <glyph glyph-name="uni0138" unicode="&#x138;" horiz-adv-x="1373" 
d="M454 1117v-413h105l290 413h388l-411 -556l401 -561h-391l-271 412h-111v-412h-307v1117h307z" />
    <glyph glyph-name="uni0139" unicode="&#x139;" horiz-adv-x="1162" 
d="M129 0v1489h315v-1229h639v-260h-954zM173 1633l154 331h287l-222 -331h-219z" />
    <glyph glyph-name="uni013A" unicode="&#x13a;" horiz-adv-x="557" 
d="M433 1489v-1489h-309v1489h309zM167 1633l154 331h286l-222 -331h-218z" />
    <glyph glyph-name="uni013B" unicode="&#x13b;" horiz-adv-x="1162" 
d="M129 0v1489h315v-1229h639v-260h-954zM375 -477l90 359h287l-159 -359h-218z" />
    <glyph glyph-name="uni013C" unicode="&#x13c;" horiz-adv-x="557" 
d="M433 1489v-1489h-309v1489h309zM47 -477l90 359h287l-159 -359h-218z" />
    <glyph glyph-name="uni013D" unicode="&#x13d;" horiz-adv-x="1162" 
d="M129 0v1489h315v-1229h639v-260h-954zM668 1183v384h232l-52 -384h-180z" />
    <glyph glyph-name="uni013E" unicode="&#x13e;" horiz-adv-x="769" 
d="M433 1489v-1489h-309v1489h309zM560 1183v384h233l-53 -384h-180z" />
    <glyph glyph-name="uni013F" unicode="&#x13f;" horiz-adv-x="1186" 
d="M135 0v1489h314v-1229h639v-260h-953zM753 746q-69 0 -118 46t-49 111t49 111t118 46t118.5 -46.5t49.5 -110.5q0 -65 -49.5 -111t-118.5 -46z" />
    <glyph glyph-name="uni0140" unicode="&#x140;" horiz-adv-x="842" 
d="M441 1489v-1489h-310v1489h310zM699 661q-69 0 -118 46t-49 111t49 111t118 46t118.5 -46.5t49.5 -110.5q0 -65 -49.5 -111t-118.5 -46z" />
    <glyph glyph-name="uni0141" unicode="&#x141;" horiz-adv-x="1199" 
d="M704 962v-172l-197 -55v-475h638v-260h-953v649l-162 -45v171l162 45v669h315v-581z" />
    <glyph glyph-name="uni0142" unicode="&#x142;" horiz-adv-x="557" 
d="M572 969v-171l-139 -45v-753h-309v654l-139 -45v172l139 44v664h309v-564z" />
    <glyph glyph-name="uni0143" unicode="&#x143;" horiz-adv-x="1505" 
d="M1375 1489v-1489h-272l-648 937h-11v-937h-315v1489h277l643 -936h13v936h313zM642 1633l154 331h287l-222 -331h-219z" />
    <glyph glyph-name="uni0144" unicode="&#x144;" horiz-adv-x="1273" 
d="M433 646v-646h-309v1117h295v-197h13q38 99 125.5 155.5t210.5 56.5q176 0 280.5 -113.5t104.5 -307.5v-711h-309v656q1 102 -52.5 160t-146.5 58q-95 0 -153 -61t-59 -167zM527 1261l154 331h286l-222 -331h-218z" />
    <glyph glyph-name="uni0145" unicode="&#x145;" horiz-adv-x="1505" 
d="M1375 1489v-1489h-272l-648 937h-11v-937h-315v1489h277l643 -936h13v936h313zM522 -477l90 359h287l-159 -359h-218z" />
    <glyph glyph-name="uni0146" unicode="&#x146;" horiz-adv-x="1273" 
d="M433 646v-646h-309v1117h295v-197h13q38 99 125.5 155.5t210.5 56.5q176 0 280.5 -113.5t104.5 -307.5v-711h-309v656q1 102 -52.5 160t-146.5 58q-95 0 -153 -61t-59 -167zM407 -477l90 359h286l-159 -359h-217z" />
    <glyph glyph-name="uni0147" unicode="&#x147;" horiz-adv-x="1505" 
d="M1375 1489v-1489h-272l-648 937h-11v-937h-315v1489h277l643 -936h13v936h313zM607 1953l146 -177l147 177h264v-10l-296 -320h-230l-295 320v10h264z" />
    <glyph glyph-name="uni0148" unicode="&#x148;" horiz-adv-x="1273" 
d="M433 646v-646h-309v1117h295v-197h13q38 99 125.5 155.5t210.5 56.5q176 0 280.5 -113.5t104.5 -307.5v-711h-309v656q1 102 -52.5 160t-146.5 58q-95 0 -153 -61t-59 -167zM492 1581l146 -177l146 177h264v-10l-295 -320h-231l-294 320v10h264z" />
    <glyph glyph-name="uni014A" unicode="&#x14a;" horiz-adv-x="1505" 
d="M1103 0l-648 937h-11v-937h-315v1489h277l643 -936h13v936h313v-1549q0 -203 -114 -292t-324 -89q-67 0 -112 15v234q44 -11 107 -11q79 0 125 35t46 104v64z" />
    <glyph glyph-name="uni014B" unicode="&#x14b;" horiz-adv-x="1293" 
d="M433 646v-646h-309v1117h295v-197h13q38 99 125.5 155.5t210.5 56.5q176 0 280.5 -113.5t104.5 -307.5v-759q0 -181 -107.5 -276t-291.5 -95q-100 0 -156 12l20 252q44 -11 93 -11q133 0 133 118v704q1 102 -52.5 160t-146.5 58q-95 0 -153 -61t-59 -167z" />
    <glyph glyph-name="uni014C" unicode="&#x14c;" horiz-adv-x="1601" 
d="M1498 745q0 -179 -53.5 -324.5t-147 -241.5t-221 -147.5t-275.5 -51.5q-149 0 -276.5 52t-221.5 148t-147 241.5t-53 323.5q0 179 53 324.5t147 241.5t221.5 147.5t276.5 51.5q148 0 275.5 -51.5t221 -147.5t147 -241.5t53.5 -324.5zM1179 745q0 233 -102 359.5
t-276 126.5q-175 0 -276.5 -126.5t-101.5 -359.5t101.5 -360t276.5 -127q174 0 276 127t102 360zM1155 1862v-168h-708v168h708z" />
    <glyph glyph-name="uni014D" unicode="&#x14d;" horiz-adv-x="1256" 
d="M628 -22q-252 0 -400.5 158t-148.5 418q0 261 148.5 419.5t400.5 158.5q253 0 401.5 -158.5t148.5 -419.5q0 -260 -149 -418t-401 -158zM630 218q111 0 172 93.5t61 244.5t-61 245t-172 94q-114 0 -175.5 -94t-61.5 -245t61.5 -244.5t175.5 -93.5zM983 1489v-168h-709
v168h709z" />
    <glyph glyph-name="uni014E" unicode="&#x14e;" horiz-adv-x="1601" 
d="M1498 745q0 -179 -53.5 -324.5t-147 -241.5t-221 -147.5t-275.5 -51.5q-149 0 -276.5 52t-221.5 148t-147 241.5t-53 323.5q0 179 53 324.5t147 241.5t221.5 147.5t276.5 51.5q148 0 275.5 -51.5t221 -147.5t147 -241.5t53.5 -324.5zM1179 745q0 233 -102 359.5
t-276 126.5q-175 0 -276.5 -126.5t-101.5 -359.5t101.5 -360t276.5 -127q174 0 276 127t102 360zM945 1879h216q-1 -133 -98.5 -213.5t-261.5 -80.5t-262 80.5t-98 213.5h215q-1 -55 35 -92.5t110 -37.5q73 0 108.5 37t35.5 93z" />
    <glyph glyph-name="uni014F" unicode="&#x14f;" horiz-adv-x="1256" 
d="M628 -22q-252 0 -400.5 158t-148.5 418q0 261 148.5 419.5t400.5 158.5q253 0 401.5 -158.5t148.5 -419.5q0 -260 -149 -418t-401 -158zM630 218q111 0 172 93.5t61 244.5t-61 245t-172 94q-114 0 -175.5 -94t-61.5 -245t61.5 -244.5t175.5 -93.5zM772 1507h216
q-1 -133 -98.5 -213.5t-261.5 -80.5t-261.5 80.5t-97.5 213.5h215q-1 -56 34.5 -93t109.5 -37q73 0 108.5 37t35.5 93z" />
    <glyph glyph-name="uni0150" unicode="&#x150;" horiz-adv-x="1601" 
d="M1498 745q0 -179 -53.5 -324.5t-147 -241.5t-221 -147.5t-275.5 -51.5q-149 0 -276.5 52t-221.5 148t-147 241.5t-53 323.5q0 179 53 324.5t147 241.5t221.5 147.5t276.5 51.5q148 0 275.5 -51.5t221 -147.5t147 -241.5t53.5 -324.5zM1179 745q0 233 -102 359.5
t-276 126.5q-175 0 -276.5 -126.5t-101.5 -359.5t101.5 -360t276.5 -127q174 0 276 127t102 360zM855 1619l231 301h262l-274 -301h-219zM482 1619l194 301h261l-238 -301h-217z" />
    <glyph glyph-name="uni0151" unicode="&#x151;" horiz-adv-x="1256" 
d="M628 -22q-252 0 -400.5 158t-148.5 418q0 261 148.5 419.5t400.5 158.5q253 0 401.5 -158.5t148.5 -419.5q0 -260 -149 -418t-401 -158zM630 218q111 0 172 93.5t61 244.5t-61 245t-172 94q-114 0 -175.5 -94t-61.5 -245t61.5 -244.5t175.5 -93.5zM683 1247l230 301h262
l-273 -301h-219zM310 1247l194 301h260l-237 -301h-217z" />
    <glyph glyph-name="uni0152" unicode="&#x152;" horiz-adv-x="2084" 
d="M780 0q-146 0 -269.5 49t-214.5 141t-142 234t-51 319q0 178 51 320.5t142 235t214.5 141.5t269.5 49h1184v-259h-689v-355h637v-260h-637v-355h692v-260h-1187zM960 260v970h-180q-166 0 -264 -122t-97 -365q-1 -243 96.5 -363t264.5 -120h180z" />
    <glyph glyph-name="uni0153" unicode="&#x153;" horiz-adv-x="2000" 
d="M632 -22q-252 0 -401 158t-149 418q0 261 148.5 419.5t401.5 158.5q251 0 401 -158q150 158 392 158q112 0 206.5 -36t166 -105t112 -178.5t40.5 -248.5v-85h-761q0 -125 68 -197.5t185 -72.5q78 0 135 33.5t80 96.5l286 -19q-33 -157 -167 -249.5t-339 -92.5
q-258 0 -406 156q-150 -156 -399 -156zM633 218q112 0 173 93.5t61 244.5t-61 245t-173 94q-113 0 -174.5 -93.5t-61.5 -245.5t61 -245t175 -93zM1189 671h469q-1 100 -64 164.5t-164 64.5t-168.5 -66t-72.5 -163z" />
    <glyph glyph-name="uni0154" unicode="&#x154;" horiz-adv-x="1344" 
d="M129 0v1489h588q251 0 392.5 -131t141.5 -355q0 -152 -68 -260.5t-195 -163.5l316 -579h-348l-282 528h-230v-528h-315zM444 781h214q269 0 269 222q0 229 -270 229h-213v-451zM552 1633l154 331h287l-222 -331h-219z" />
    <glyph glyph-name="uni0155" unicode="&#x155;" horiz-adv-x="837" 
d="M124 0v1117h300v-195h12q30 102 101.5 156.5t166.5 54.5q53 0 97 -11v-275q-55 17 -130 17q-103 0 -170.5 -65t-67.5 -167v-632h-309zM347 1261l154 331h287l-222 -331h-219z" />
    <glyph glyph-name="uni0156" unicode="&#x156;" horiz-adv-x="1344" 
d="M129 0v1489h588q251 0 392.5 -131t141.5 -355q0 -152 -68 -260.5t-195 -163.5l316 -579h-348l-282 528h-230v-528h-315zM444 781h214q269 0 269 222q0 229 -270 229h-213v-451zM457 -477l90 359h286l-159 -359h-217z" />
    <glyph glyph-name="uni0157" unicode="&#x157;" horiz-adv-x="837" 
d="M124 0v1117h300v-195h12q30 102 101.5 156.5t166.5 54.5q53 0 97 -11v-275q-55 17 -130 17q-103 0 -170.5 -65t-67.5 -167v-632h-309zM49 -477l90 359h286l-159 -359h-217z" />
    <glyph glyph-name="uni0158" unicode="&#x158;" horiz-adv-x="1344" 
d="M129 0v1489h588q251 0 392.5 -131t141.5 -355q0 -152 -68 -260.5t-195 -163.5l316 -579h-348l-282 528h-230v-528h-315zM444 781h214q269 0 269 222q0 229 -270 229h-213v-451zM517 1953l146 -177l146 177h264v-10l-295 -320h-230l-295 320v10h264z" />
    <glyph glyph-name="uni0159" unicode="&#x159;" horiz-adv-x="837" 
d="M124 0v1117h300v-195h12q30 102 101.5 156.5t166.5 54.5q53 0 97 -11v-275q-55 17 -130 17q-103 0 -170.5 -65t-67.5 -167v-632h-309zM313 1581l146 -177l146 177h264v-10l-295 -320h-231l-294 320v10h264z" />
    <glyph glyph-name="uni015A" unicode="&#x15a;" horiz-adv-x="1341" 
d="M937 1061q-9 88 -75 137t-179 49t-176 -46.5t-63 -120.5q-1 -74 61.5 -116.5t173.5 -68.5l134 -32q208 -46 327 -153.5t120 -284.5q-1 -206 -154.5 -326t-424.5 -120q-276 0 -435 125.5t-165 363.5h305q7 -109 86 -167t206 -58q119 0 191 50.5t73 132.5q-1 71 -62 113
t-191 73l-162 41q-407 97 -406 406q-1 201 157.5 326t406.5 125q247 0 399 -124.5t155 -324.5h-302zM559 1633l154 331h287l-222 -331h-219z" />
    <glyph glyph-name="uni015B" unicode="&#x15b;" horiz-adv-x="1150" 
d="M1053 799l-284 -18q-12 57 -60.5 94t-125.5 37q-73 0 -122.5 -31t-48.5 -80q-1 -41 32 -68t109 -44l203 -40q163 -33 242.5 -107.5t80.5 -195.5q-1 -164 -140.5 -266t-357.5 -102q-220 0 -352.5 92t-154.5 254l305 16q14 -68 66.5 -103.5t136.5 -35.5q80 0 130.5 32
t51.5 82q-1 82 -144 111l-193 39q-163 33 -243.5 113t-79.5 206q-1 160 128 254t345 94q209 0 332 -88t144 -245zM473 1261l154 331h286l-221 -331h-219z" />
    <glyph glyph-name="uni015C" unicode="&#x15c;" horiz-adv-x="1341" 
d="M937 1061q-9 88 -75 137t-179 49t-176 -46.5t-63 -120.5q-1 -74 61.5 -116.5t173.5 -68.5l134 -32q208 -46 327 -153.5t120 -284.5q-1 -206 -154.5 -326t-424.5 -120q-276 0 -435 125.5t-165 363.5h305q7 -109 86 -167t206 -58q119 0 191 50.5t73 132.5q-1 71 -62 113
t-191 73l-162 41q-407 97 -406 406q-1 201 157.5 326t406.5 125q247 0 399 -124.5t155 -324.5h-302zM817 1623l-146 178l-146 -178h-264v10l295 320h231l294 -320v-10h-264z" />
    <glyph glyph-name="uni015D" unicode="&#x15d;" horiz-adv-x="1150" 
d="M1053 799l-284 -18q-12 57 -60.5 94t-125.5 37q-73 0 -122.5 -31t-48.5 -80q-1 -41 32 -68t109 -44l203 -40q163 -33 242.5 -107.5t80.5 -195.5q-1 -164 -140.5 -266t-357.5 -102q-220 0 -352.5 92t-154.5 254l305 16q14 -68 66.5 -103.5t136.5 -35.5q80 0 130.5 32
t51.5 82q-1 82 -144 111l-193 39q-163 33 -243.5 113t-79.5 206q-1 160 128 254t345 94q209 0 332 -88t144 -245zM730 1251l-146 177l-146 -177h-264v10l295 320h231l294 -320v-10h-264z" />
    <glyph glyph-name="uni015E" unicode="&#x15e;" horiz-adv-x="1341" 
d="M937 1061q-9 88 -75 137t-179 49t-176 -46.5t-63 -120.5q-1 -74 61.5 -116.5t173.5 -68.5l134 -32q208 -46 327 -153.5t120 -284.5q-1 -195 -138 -313.5t-382 -131.5l-8 -37q78 -12 124 -57.5t47 -119.5q1 -110 -100.5 -173.5t-283.5 -63.5l-3 138q195 0 198 91
q1 44 -33.5 67.5t-111.5 32.5l27 125q-238 19 -374 143t-141 342h305q7 -109 86 -167t206 -58q119 0 191 50.5t73 132.5q-1 71 -62 113t-191 73l-162 41q-407 97 -406 406q-1 201 157.5 326t406.5 125q247 0 399 -124.5t155 -324.5h-302z" />
    <glyph glyph-name="uni015F" unicode="&#x15f;" horiz-adv-x="1150" 
d="M1053 799l-284 -18q-12 57 -60.5 94t-125.5 37q-73 0 -122.5 -31t-48.5 -80q-1 -41 32 -68t109 -44l203 -40q163 -33 242.5 -107.5t80.5 -195.5q-1 -150 -118.5 -249t-308.5 -116l-8 -38q78 -12 124 -57.5t47 -119.5q1 -110 -100.5 -173.5t-283.5 -63.5l-3 138
q195 0 198 91q1 44 -33.5 67.5t-111.5 32.5l27 123q-188 15 -301 105t-133 238l305 16q14 -68 66.5 -103.5t136.5 -35.5q80 0 130.5 32t51.5 82q-1 82 -144 111l-193 39q-163 33 -243.5 113t-79.5 206q-1 160 128 254t345 94q209 0 332 -88t144 -245z" />
    <glyph glyph-name="uni0160" unicode="&#x160;" horiz-adv-x="1341" 
d="M937 1061q-9 88 -75 137t-179 49t-176 -46.5t-63 -120.5q-1 -74 61.5 -116.5t173.5 -68.5l134 -32q208 -46 327 -153.5t120 -284.5q-1 -206 -154.5 -326t-424.5 -120q-276 0 -435 125.5t-165 363.5h305q7 -109 86 -167t206 -58q119 0 191 50.5t73 132.5q-1 71 -62 113
t-191 73l-162 41q-407 97 -406 406q-1 201 157.5 326t406.5 125q247 0 399 -124.5t155 -324.5h-302zM525 1953l146 -177l146 177h264v-10l-295 -320h-230l-295 320v10h264z" />
    <glyph glyph-name="uni0161" unicode="&#x161;" horiz-adv-x="1150" 
d="M1053 799l-284 -18q-12 57 -60.5 94t-125.5 37q-73 0 -122.5 -31t-48.5 -80q-1 -41 32 -68t109 -44l203 -40q163 -33 242.5 -107.5t80.5 -195.5q-1 -164 -140.5 -266t-357.5 -102q-220 0 -352.5 92t-154.5 254l305 16q14 -68 66.5 -103.5t136.5 -35.5q80 0 130.5 32
t51.5 82q-1 82 -144 111l-193 39q-163 33 -243.5 113t-79.5 206q-1 160 128 254t345 94q209 0 332 -88t144 -245zM438 1581l146 -177l146 177h264v-10l-295 -320h-231l-294 320v10h264z" />
    <glyph glyph-name="uni0162" unicode="&#x162;" horiz-adv-x="1368" 
d="M73 1230v259h1223v-259h-456v-1230h-81l-11 -57q78 -12 124 -57.5t47 -119.5q1 -110 -100.5 -173.5t-283.5 -63.5l-3 138q195 0 198 91q1 44 -33.5 67.5t-111.5 32.5l31 142h-87v1230h-456z" />
    <glyph glyph-name="uni0163" unicode="&#x163;" horiz-adv-x="795" 
d="M718 1117v-233h-210v-541q0 -61 26.5 -85t77.5 -24q27 0 77 10l49 -230q-57 -20 -129 -27l-8 -44q78 -12 124 -57.5t47 -119.5q1 -110 -100.5 -173.5t-283.5 -63.5l-3 138q195 0 198 91q1 44 -34 67.5t-112 32.5l29 132q-127 18 -198 98t-70 215v581h-153v233h153v268
h310v-268h210z" />
    <glyph glyph-name="uni0164" unicode="&#x164;" horiz-adv-x="1368" 
d="M73 1230v259h1223v-259h-456v-1230h-311v1230h-456zM540 1953l146 -177l146 177h264v-10l-295 -320h-231l-294 320v10h264z" />
    <glyph glyph-name="uni0165" unicode="&#x165;" horiz-adv-x="869" 
d="M718 1117v-233h-210v-541q0 -61 26.5 -85t77.5 -24q27 0 77 10l49 -230q-80 -26 -168 -29q-173 -7 -273 75t-99 243v581h-153v233h153v268h310v-268h210zM634 1255v384h233l-52 -384h-181z" />
    <glyph glyph-name="uni0166" unicode="&#x166;" horiz-adv-x="1368" 
d="M73 1230v259h1223v-259h-456v-427h206v-183h-206v-620h-311v620h-209v183h209v427h-456z" />
    <glyph glyph-name="uni0167" unicode="&#x167;" horiz-adv-x="795" 
d="M45 560v148h153v176h-153v233h153v268h310v-268h210v-233h-210v-176h210v-148h-210v-217q0 -61 26.5 -85t77.5 -24q27 0 77 10l49 -230q-80 -26 -168 -29q-173 -7 -273 75t-99 243v257h-153z" />
    <glyph glyph-name="uni0168" unicode="&#x168;" horiz-adv-x="1493" 
d="M1049 1489h315v-967q0 -244 -169.5 -393.5t-447.5 -149.5q-279 0 -448.5 149t-169.5 394v967h315v-940q0 -129 83.5 -211t219.5 -82t219 82t83 211v940zM539 1627l-172 2q0 134 66.5 210.5t169.5 77.5q35 0 69.5 -11.5t50.5 -21t48 -31.5q62 -45 100 -45q41 1 63.5 31.5
t23.5 81.5l169 -5q-1 -134 -67.5 -210.5t-168.5 -77.5q-38 0 -72.5 11t-51 21.5t-45.5 31.5q-21 16 -32.5 23.5t-30 14.5t-36.5 7q-38 0 -61 -29.5t-23 -80.5z" />
    <glyph glyph-name="uni0169" unicode="&#x169;" horiz-adv-x="1273" 
d="M840 476v641h310v-1117h-298v203h-11q-38 -101 -127 -159.5t-212 -58.5q-170 0 -273.5 113.5t-104.5 307.5v711h309v-656q1 -99 53.5 -156.5t140.5 -57.5q89 0 151.5 61t61.5 168zM431 1255l-173 2q0 134 67 210.5t170 77.5q35 0 69.5 -11.5t50.5 -21t48 -31.5
q62 -45 100 -45q41 1 63 31t23 81l170 -5q-1 -134 -67 -210t-169 -77q-38 0 -72.5 11t-51 21.5t-45.5 31.5q-60 45 -100 45q-38 0 -60.5 -29.5t-22.5 -80.5z" />
    <glyph glyph-name="uni016A" unicode="&#x16a;" horiz-adv-x="1493" 
d="M1049 1489h315v-967q0 -244 -169.5 -393.5t-447.5 -149.5q-279 0 -448.5 149t-169.5 394v967h315v-940q0 -129 83.5 -211t219.5 -82t219 82t83 211v940zM1101 1862v-168h-708v168h708z" />
    <glyph glyph-name="uni016B" unicode="&#x16b;" horiz-adv-x="1273" 
d="M840 476v641h310v-1117h-298v203h-11q-38 -101 -127 -159.5t-212 -58.5q-170 0 -273.5 113.5t-104.5 307.5v711h309v-656q1 -99 53.5 -156.5t140.5 -57.5q89 0 151.5 61t61.5 168zM992 1489v-168h-708v168h708z" />
    <glyph glyph-name="uni016C" unicode="&#x16c;" horiz-adv-x="1493" 
d="M1049 1489h315v-967q0 -244 -169.5 -393.5t-447.5 -149.5q-279 0 -448.5 149t-169.5 394v967h315v-940q0 -129 83.5 -211t219.5 -82t219 82t83 211v940zM891 1879h216q-1 -133 -98.5 -213.5t-261.5 -80.5t-261.5 80.5t-97.5 213.5h214q-1 -55 35 -92.5t110 -37.5
q73 0 108.5 37t35.5 93z" />
    <glyph glyph-name="uni016D" unicode="&#x16d;" horiz-adv-x="1273" 
d="M840 476v641h310v-1117h-298v203h-11q-38 -101 -127 -159.5t-212 -58.5q-170 0 -273.5 113.5t-104.5 307.5v711h309v-656q1 -99 53.5 -156.5t140.5 -57.5q89 0 151.5 61t61.5 168zM783 1507h216q-1 -133 -98.5 -213.5t-261.5 -80.5t-262 80.5t-98 213.5h215
q-1 -55 35 -92.5t110 -37.5q73 0 108.5 37t35.5 93z" />
    <glyph glyph-name="uni016E" unicode="&#x16e;" horiz-adv-x="1493" 
d="M1049 1489h315v-967q0 -244 -169.5 -393.5t-447.5 -149.5q-279 0 -448.5 149t-169.5 394v967h315v-940q0 -129 83.5 -211t219.5 -82t219 82t83 211v940zM747 1575q-93 0 -158.5 64t-65.5 155t65.5 155t158.5 64t158.5 -64t65.5 -155t-65.5 -155t-158.5 -64zM747 1700
q40 0 68.5 27.5t28.5 66.5t-28 67t-69 28q-41 -1 -69.5 -28.5t-28.5 -66.5t28.5 -67t69.5 -27z" />
    <glyph glyph-name="uni016F" unicode="&#x16f;" horiz-adv-x="1273" 
d="M840 476v641h310v-1117h-298v203h-11q-38 -101 -127 -159.5t-212 -58.5q-170 0 -273.5 113.5t-104.5 307.5v711h309v-656q1 -99 53.5 -156.5t140.5 -57.5q89 0 151.5 61t61.5 168zM639 1237q-104 0 -177 69.5t-73 169.5q0 99 73.5 170.5t176.5 71.5q102 0 175 -71.5
t73 -170.5q0 -100 -72.5 -169.5t-175.5 -69.5zM639 1367q47 1 80 33.5t33 75.5q0 45 -33 78t-80 33q-48 -1 -81 -33.5t-33 -77.5q0 -44 33 -76.5t81 -32.5z" />
    <glyph glyph-name="uni0170" unicode="&#x170;" horiz-adv-x="1493" 
d="M1049 1489h315v-967q0 -244 -169.5 -393.5t-447.5 -149.5q-279 0 -448.5 149t-169.5 394v967h315v-940q0 -129 83.5 -211t219.5 -82t219 82t83 211v940zM801 1619l231 301h262l-274 -301h-219zM428 1619l195 301h260l-238 -301h-217z" />
    <glyph glyph-name="uni0171" unicode="&#x171;" horiz-adv-x="1273" 
d="M840 476v641h310v-1117h-298v203h-11q-38 -101 -127 -159.5t-212 -58.5q-170 0 -273.5 113.5t-104.5 307.5v711h309v-656q1 -99 53.5 -156.5t140.5 -57.5q89 0 151.5 61t61.5 168zM692 1247l231 301h262l-274 -301h-219zM319 1247l194 301h261l-238 -301h-217z" />
    <glyph glyph-name="uni0172" unicode="&#x172;" horiz-adv-x="1493" 
d="M1049 1489h315v-967q0 -200 -116.5 -339t-316.5 -184q-73 -35 -111.5 -71.5t-37.5 -84.5q-2 -73 70 -73q26 0 77 18l32 -160q-79 -44 -166 -44q-98 0 -162.5 50t-81.5 142q-25 119 43 216q-215 39 -340 180.5t-125 349.5v967h315v-940q0 -129 83.5 -211t219.5 -82t219 82
t83 211v940z" />
    <glyph glyph-name="uni0173" unicode="&#x173;" horiz-adv-x="1273" 
d="M840 476v641h310v-1117q-76 -36 -116 -73t-39 -86q-2 -72 70 -72q28 0 77 17l32 -160q-77 -43 -166 -43q-98 0 -162.5 50t-81.5 142q-15 73 8 144.5t80 121.5v162h-11q-38 -101 -127 -159.5t-212 -58.5q-170 0 -273.5 113.5t-104.5 307.5v711h309v-656q1 -99 53.5 -156.5
t140.5 -57.5q89 0 151.5 61t61.5 168z" />
    <glyph glyph-name="uni0174" unicode="&#x174;" horiz-adv-x="2121" 
d="M465 0l-426 1489h344l246 -1034h12l272 1034h295l271 -1037h13l247 1037h344l-426 -1489h-307l-284 974h-11l-283 -974h-307zM1207 1623l-146 178l-146 -178h-264v10l295 320h231l294 -320v-10h-264z" />
    <glyph glyph-name="uni0175" unicode="&#x175;" horiz-adv-x="1741" 
d="M344 0l-304 1117h313l174 -750h10l180 750h308l183 -746h9l171 746h312l-303 -1117h-328l-192 703h-14l-192 -703h-327zM1017 1251l-146 177l-147 -177h-264v10l296 320h230l295 -320v-10h-264z" />
    <glyph glyph-name="uni0176" unicode="&#x176;" horiz-adv-x="1483" 
d="M42 1489h353l340 -641h14l340 641h352l-543 -962v-527h-313v527zM888 1623l-146 178l-146 -178h-264v10l295 320h230l295 -320v-10h-264z" />
    <glyph glyph-name="uni0177" unicode="&#x177;" horiz-adv-x="1200" 
d="M315 -419q-121 0 -195 32l70 231q80 -29 139 -13t88 90l19 47l-401 1149h326l231 -820h12l233 820h328l-434 -1238q-104 -298 -416 -298zM745 1251l-146 177l-147 -177h-264v10l296 320h230l295 -320v-10h-264z" />
    <glyph glyph-name="uni0178" unicode="&#x178;" horiz-adv-x="1483" 
d="M42 1489h353l340 -641h14l340 641h352l-543 -962v-527h-313v527zM520 1642q-63 0 -108 44t-45 105t45 104t108 43t107 -43t44 -104t-44 -105t-107 -44zM965 1642q-63 0 -108 44t-45 105t45 104t108 43t107 -43t44 -104t-44 -105t-107 -44z" />
    <glyph glyph-name="uni0179" unicode="&#x179;" horiz-adv-x="1365" 
d="M113 0v187l744 1043h-745v259h1140v-186l-744 -1043h746v-260h-1141zM574 1633l154 331h287l-222 -331h-219z" />
    <glyph glyph-name="uni017A" unicode="&#x17a;" horiz-adv-x="1170" 
d="M118 0v185l547 677v8h-528v247h901v-201l-514 -661v-8h533v-247h-939zM473 1261l154 331h286l-221 -331h-219z" />
    <glyph glyph-name="uni017B" unicode="&#x17b;" horiz-adv-x="1365" 
d="M113 0v187l744 1043h-745v259h1140v-186l-744 -1043h746v-260h-1141zM685 1633q-69 0 -118 46.5t-49 111.5q0 64 49 110t118 46t118.5 -46t49.5 -110q0 -65 -49.5 -111.5t-118.5 -46.5z" />
    <glyph glyph-name="uni017C" unicode="&#x17c;" horiz-adv-x="1170" 
d="M118 0v185l547 677v8h-528v247h901v-201l-514 -661v-8h533v-247h-939zM584 1261q-69 0 -118 46t-49 111t49 111t118 46t118.5 -46.5t49.5 -110.5q0 -65 -49.5 -111t-118.5 -46z" />
    <glyph glyph-name="uni017D" unicode="&#x17d;" horiz-adv-x="1365" 
d="M113 0v187l744 1043h-745v259h1140v-186l-744 -1043h746v-260h-1141zM540 1953l146 -177l146 177h264v-10l-295 -320h-231l-294 320v10h264z" />
    <glyph glyph-name="uni017E" unicode="&#x17e;" horiz-adv-x="1170" 
d="M118 0v185l547 677v8h-528v247h901v-201l-514 -661v-8h533v-247h-939zM438 1581l146 -177l146 177h264v-10l-295 -320h-231l-294 320v10h264z" />
    <glyph glyph-name="uni017F" unicode="&#x17f;" horiz-adv-x="592" 
d="M313 0h-306v1174q-1 186 108 284.5t308 98.5q70 0 163 -20l-23 -232q-41 8 -100 8q-73 0 -111.5 -35t-38.5 -104v-1174z" />
    <glyph glyph-name="uni0180" unicode="&#x180;" horiz-adv-x="1301" 
d="M129 0v1193h-210v183h210v113h310v-113h206v-183h-206v-264h10q17 38 41.5 70.5t62 64t92.5 50t122 18.5q93 0 174 -36.5t143.5 -106.5t98.5 -181t36 -251q0 -137 -35 -247t-96 -181t-143.5 -109t-178.5 -38q-123 0 -201 57t-116 140h-14v-179h-306zM433 559
q0 -151 62.5 -241t172.5 -90q112 0 173.5 90.5t61.5 240.5q0 148 -61.5 237t-173.5 89t-173.5 -87.5t-61.5 -238.5z" />
    <glyph glyph-name="uni0181" unicode="&#x181;" horiz-adv-x="1774" 
d="M551 0v1232h-51q-149 0 -147 -186v-87h-280v146q-1 176 113.5 280t312.5 104h648q240 0 367 -104t127 -277q0 -127 -74 -210t-195 -110v-15q134 -6 231 -104.5t97 -256.5q0 -184 -134.5 -298t-378.5 -114h-636zM865 257h257q128 0 190.5 49.5t62.5 136.5q0 93 -67 151.5
t-179 58.5h-264v-396zM865 866h234q99 0 162 51t63 138q0 82 -58 131t-161 49h-240v-369z" />
    <glyph glyph-name="uni0182" unicode="&#x182;" horiz-adv-x="1341" 
d="M129 0v1489h989v-259h-674v-291h243q264 0 418.5 -125.5t154.5 -337.5q0 -213 -155.5 -344.5t-417.5 -131.5h-558zM444 253h243q122 0 191.5 65t69.5 161q0 93 -69 152t-192 59h-243v-437z" />
    <glyph glyph-name="uni0183" unicode="&#x183;" horiz-adv-x="1301" 
d="M1060 1489v-222h-621v-338h10q17 38 41.5 70.5t62 64t92.5 50t122 18.5q93 0 174 -36.5t143.5 -106.5t98.5 -181t36 -251q0 -137 -35 -247t-96 -181t-143.5 -109t-178.5 -38q-123 0 -201 57t-116 140h-14v-179h-306v1489h931zM433 559q0 -151 62.5 -241t172.5 -90
q112 0 173.5 90.5t61.5 240.5q0 148 -61.5 237t-173.5 89t-173.5 -87.5t-61.5 -238.5z" />
    <glyph glyph-name="uni0184" unicode="&#x184;" horiz-adv-x="1606" 
d="M700 939h242q264 0 418.5 -125.5t154.5 -337.5q0 -213 -155.5 -344.5t-417.5 -131.5h-557v1230h-360v259h675v-550zM700 690v-437h242q122 0 191.5 65t69.5 161q0 93 -69 152t-192 59h-242z" />
    <glyph glyph-name="uni0185" unicode="&#x185;" horiz-adv-x="1368" 
d="M270 1536h51v-47h256v-501h12q30 64 102.5 104t170.5 40q93 0 174 -36.5t143.5 -106t99.5 -181t37 -251.5q-1 -272 -129 -423.5t-324 -151.5q-106 0 -175 39t-99 102h-17v-123h-305v1050l-188 166v148zM1023 559q-1 153 -63.5 239.5t-182.5 86.5q-83 0 -136.5 -45
t-75 -115t-20.5 -166q-1 -96 20.5 -167.5t75 -117.5t136.5 -46q119 0 182 88.5t64 242.5z" />
    <glyph glyph-name="uni0186" unicode="&#x186;" horiz-adv-x="1540" 
d="M97 521h318q18 -122 104.5 -192.5t216.5 -70.5q175 0 278.5 128.5t103.5 358.5q0 234 -103 360t-277 126q-127 0 -214 -66.5t-109 -184.5l-318 2q13 104 62.5 198t129.5 168.5t197.5 118t256.5 43.5q150 0 277 -52t219.5 -148t145 -241t52.5 -324t-53 -324.5
t-146.5 -241.5t-220 -147.5t-274.5 -51.5q-263 0 -439.5 143.5t-206.5 397.5z" />
    <glyph glyph-name="uni0187" unicode="&#x187;" horiz-adv-x="1715" 
d="M1444 968h-319q-18 122 -104.5 192.5t-216.5 70.5q-175 0 -278 -128t-103 -358q0 -234 102.5 -360.5t276.5 -126.5q127 0 214 66.5t109 184.5l319 -1q-13 -104 -62.5 -198t-129.5 -168.5t-198 -118t-257 -43.5q-150 0 -277 52t-219.5 148t-145 241t-52.5 324t53 324.5
t146.5 241.5t220 147.5t274.5 51.5q253 0 425 -132q60 76 155.5 116.5t207.5 40.5q96 0 148 -9v-250q-69 3 -88 3q-37 0 -71 -9.5t-64 -30t-48 -58.5t-18 -88v-125z" />
    <glyph glyph-name="uni0188" unicode="&#x188;" horiz-adv-x="1317" 
d="M1130 704h-295q-13 85 -66.5 135.5t-136.5 50.5q-110 0 -174.5 -87.5t-64.5 -243.5q0 -159 64.5 -247.5t174.5 -88.5q81 0 135.5 49t67.5 137h292q-11 -195 -145 -313t-354 -118q-254 0 -401.5 158.5t-147.5 417.5q0 260 148 419t400 159q154 0 269 -60q47 74 128.5 114
t184.5 40q68 0 129 -17v-204q-67 8 -76 8q-67 0 -99.5 -33t-32.5 -108v-168z" />
    <glyph glyph-name="uni0189" unicode="&#x189;" horiz-adv-x="1489" 
d="M657 0h-528v694h-207v182h207v613h533q337 0 530.5 -198t193.5 -545q0 -349 -194 -547.5t-535 -198.5zM444 270h200q214 0 321 115.5t107 360.5q0 244 -107 359t-320 115h-201v-344h204v-182h-204v-424z" />
    <glyph glyph-name="uni018A" unicode="&#x18a;" horiz-adv-x="1917" 
d="M73 959v146q-1 176 113.5 280t312.5 104h590q337 0 531 -198t194 -545q0 -349 -194 -547.5t-535 -198.5h-528v1220h-57q-149 0 -147 -174v-87h-280zM872 1220v-950h200q214 0 321 115.5t107 360.5q0 244 -107 359t-320 115h-201z" />
    <glyph glyph-name="uni018B" unicode="&#x18b;" horiz-adv-x="1373" 
d="M1252 0h-555q-262 0 -418 132t-156 344q0 211 155.5 338t418.5 127h239v285h-670v258h986v-1484zM936 253v436h-239q-124 0 -190 -58.5t-66 -151.5q0 -97 66.5 -161.5t189.5 -64.5h239z" />
    <glyph glyph-name="uni018C" unicode="&#x18c;" horiz-adv-x="1301" 
d="M241 1489h930v-1489h-306v179h-13q-38 -83 -116 -140t-201 -57q-96 0 -178.5 38t-143.5 109t-96 181t-35 247q0 140 36 251t99 181t144 106.5t174 36.5q67 0 122 -18t92 -50t61.5 -64.5t41.5 -70.5h10v338h-621v222zM868 559q0 151 -61.5 238.5t-173.5 87.5t-173 -89
t-61 -237q0 -150 61.5 -240.5t172.5 -90.5q110 0 172.5 90t62.5 241z" />
    <glyph glyph-name="uni018D" unicode="&#x18d;" horiz-adv-x="1341" 
d="M1070 -375h-816v241h419q-12 10 -75 54.5t-108 79.5q-166 132 -255.5 264.5t-89.5 285.5v20q0 255 138.5 408.5t387.5 153.5t388.5 -143.5t139.5 -383.5v-20q0 -200 -115.5 -338t-293.5 -166q-8 -1 -37 -1q66 -55 164.5 -147.5t152.5 -149.5v-158zM894 550v20
q0 318 -223 318q-222 0 -222 -318v-20q0 -106 45.5 -186t115.5 -120q19 -8 56 -8q117 0 172.5 87t55.5 227z" />
    <glyph glyph-name="uni018E" unicode="&#x18e;" horiz-adv-x="1254" 
d="M1125 1489v-1489h-1004v260h689v355h-637v259h637v356h-691v259h1006z" />
    <glyph glyph-name="uni018F" unicode="&#x18f;" horiz-adv-x="1565" 
d="M767 -20q-290 0 -459.5 183.5t-170.5 502.5v169h975v1q0 91 -21.5 160.5t-70 123.5t-134 82t-205.5 28q-98 0 -203 -16.5t-180 -41.5l-51 261q51 27 193 52t276 25q337 0 525.5 -183.5t188.5 -490.5v-189q0 -193 -81.5 -344.5t-233 -237t-348.5 -85.5zM1108 578h-655v-30
q1 -136 83 -213.5t229 -77.5q154 0 240.5 86.5t102.5 234.5z" />
    <glyph glyph-name="uni0190" unicode="&#x190;" horiz-adv-x="1373" 
d="M866 800v-164h-182q-250 0 -250 -204q0 -199 248 -199q125 0 191 46.5t67 124.5h318q0 -131 -75 -228.5t-202 -146.5t-289 -49q-266 0 -421.5 111t-155.5 321q0 260 260 349q-111 47 -174 132t-63 194q0 197 151 310t406 113q237 0 388.5 -115t152.5 -299h-317
q-1 75 -59 116.5t-166 41.5q-118 0 -177.5 -48t-59.5 -138q0 -87 56 -138t171 -51h182v-79z" />
    <glyph glyph-name="uni0191" unicode="&#x191;" horiz-adv-x="1243" 
d="M175 0v1489h986v-259h-672v-355h606v-260h-606v-615h1v-68q0 -84 -22 -147t-58 -101.5t-89.5 -62t-109.5 -32t-126 -8.5q-84 0 -127 7v237q16 -2 54 -2h8q155 0 155 109v68z" />
    <glyph glyph-name="uni0192" unicode="&#x192;" horiz-adv-x="960" 
d="M822 1082v-219h-218v-888q0 -190 -99 -292t-279 -102q-81 0 -150 15l15 240q36 -11 95 -11q65 0 91.5 38t26.5 112v888h-169v219h169v92q1 185 108.5 283.5t298.5 98.5q79 0 173 -21l-29 -233q-39 9 -101 9q-71 0 -110 -35t-40 -102v-92h218z" />
    <glyph glyph-name="uni0193" unicode="&#x193;" horiz-adv-x="1708" 
d="M1437 1008h-322v7q-31 102 -111.5 159t-198.5 57q-174 0 -278 -128t-104 -357q0 -231 103 -359.5t282 -128.5q156 0 246.5 81t93.5 221h-320v237h623v-188q0 -145 -48 -263.5t-133 -198.5t-204 -123.5t-259 -43.5q-318 0 -511 206.5t-193 556.5q0 177 53.5 323
t147.5 242.5t221.5 149t274.5 52.5q200 0 359 -93q54 106 163.5 163.5t246.5 57.5q71 0 146 -18v-246q-65 7 -87 7q-42 0 -73.5 -6t-60 -21t-43.5 -45t-15 -74v-217v-5t1 -5z" />
    <glyph glyph-name="uni0194" unicode="&#x194;" horiz-adv-x="1525" 
d="M68 1489h357l338 -751l336 751h359l-538 -1097q111 -242 158.5 -367.5t47.5 -194.5q0 -121 -99.5 -196.5t-263.5 -75.5q-169 0 -270.5 74.5t-101.5 204.5q0 59 39.5 158.5t176.5 397.5zM764 68q-61 -139 -61 -218q0 -73 60 -73q59 0 59 74q0 75 -58 217z" />
    <glyph glyph-name="uni0195" unicode="&#x195;" horiz-adv-x="2012" 
d="M124 0v1489h301v-569h13q39 101 124 156.5t210 55.5q176 0 281 -113t105 -308v-276q0 -105 44 -152t109 -47q131 0 199.5 189t68.5 568v124h310v-124q0 -514 -144.5 -763.5t-445.5 -249.5q-214 0 -332.5 119.5t-118.5 335.5v221q0 103 -52.5 160.5t-146.5 57.5
q-97 0 -156 -61t-60 -167v-646h-309z" />
    <glyph glyph-name="uni0196" unicode="&#x196;" horiz-adv-x="616" 
d="M124 1489h309v-1154q1 -54 20 -78t63 -23q35 1 59 9l49 -226q-62 -19 -151 -24q-178 -7 -263 66.5t-86 233.5v1196z" />
    <glyph glyph-name="uni0197" unicode="&#x197;" horiz-adv-x="574" 
d="M444 1489v-613h204v-182h-204v-694h-315v694h-207v182h207v613h315z" />
    <glyph glyph-name="uni0198" unicode="&#x198;" horiz-adv-x="1493" 
d="M129 0v1489h315v-641h20l489 518q115 119 250 138.5t276 -63.5l-101 -223q-40 21 -73.5 21t-62 -17t-64.5 -54l-351 -367l614 -801h-376l-438 579l-183 -196v-383h-315z" />
    <glyph glyph-name="uni0199" unicode="&#x199;" horiz-adv-x="1181" 
d="M836 0l-295 419l-108 -118v-301h-309v1159q1 351 384 351q81 0 157 -10v-237q-50 6 -76 6q-155 0 -156 -110v-433h15l340 391h362l-422 -477l447 -640h-339z" />
    <glyph glyph-name="uni019A" unicode="&#x19a;" horiz-adv-x="557" 
d="M433 1489v-625h208v-183h-208v-681h-309v681h-209v183h209v625h309z" />
    <glyph glyph-name="uni019B" unicode="&#x19b;" horiz-adv-x="1368" 
d="M840 1390v-196l-73 -24l343 -831q21 -51 46 -81t62 -30h35l1 -241q-28 -6 -114 -6q-122 0 -196.5 57t-117.5 170l-165 444l-223 -652h-329l393 1061l-9 20l-282 -93v199l198 64q-37 41 -107 41q-36 0 -61 -3l-7 228q68 20 171 20q210 0 282 -172l8 -22z" />
    <glyph glyph-name="uni019C" unicode="&#x19c;" horiz-adv-x="1953" 
d="M874 156q-113 -176 -343 -176q-188 0 -279 103.5t-91 341.5v1064h303v-1064q0 -103 42 -151.5t115 -48.5q150 0 207 114q-3 40 -3 86v1064h302v-1064q0 -103 42 -151.5t115 -48.5q145 0 204 108v1156h306v-1489h-276l-14 118q-113 -138 -309 -138q-238 0 -321 176z" />
    <glyph glyph-name="uni019D" unicode="&#x19d;" horiz-adv-x="1540" 
d="M1410 1489v-1489h-272l-648 937h-11v-1005q0 -351 -387 -351q-108 0 -144 7v237q16 -2 53 -2h9q154 0 154 109v1557h277l643 -936h13v936h313z" />
    <glyph glyph-name="uni019E" unicode="&#x19e;" horiz-adv-x="1273" 
d="M433 646v-646h-309v1117h295v-197h13q38 99 126 155.5t210 56.5q176 0 280.5 -113t104.5 -308v-1130h-309v1075q0 103 -52.5 160.5t-146.5 57.5q-95 0 -153.5 -61t-58.5 -167z" />
    <glyph glyph-name="uni019F" unicode="&#x19f;" horiz-adv-x="1601" 
d="M1498 745q0 -179 -53.5 -324.5t-147 -241.5t-221 -147.5t-275.5 -51.5q-149 0 -276.5 52t-221.5 148t-147 241.5t-53 323.5q0 179 53 324.5t147 241.5t221.5 147.5t276.5 51.5q148 0 275.5 -51.5t221 -147.5t147 -241.5t53.5 -324.5zM1173 847q-21 185 -119.5 284.5
t-252.5 99.5t-253 -99.5t-120 -284.5h745zM801 258q153 0 252 100t120 285h-745q21 -185 120 -285t253 -100z" />
    <glyph glyph-name="uni01A0" unicode="&#x1a0;" horiz-adv-x="1665" 
d="M1441 1562h199q0 -341 -225 -422q83 -169 83 -395q0 -179 -53.5 -324.5t-147 -241.5t-221 -147.5t-275.5 -51.5q-149 0 -276.5 52t-221.5 148t-147 241.5t-53 323.5q0 179 53 324.5t147 241.5t221.5 147.5t276.5 51.5q157 0 291 -58t228 -167q65 21 93 90t28 187z
M1179 745q0 233 -102 359.5t-276 126.5q-175 0 -276.5 -126.5t-101.5 -359.5t101.5 -360t276.5 -127q174 0 276 127t102 360z" />
    <glyph glyph-name="uni01A1" unicode="&#x1a1;" horiz-adv-x="1294" 
d="M1110 1183h185q0 -266 -172 -351q55 -122 55 -278q0 -260 -149 -418t-401 -158t-400.5 158t-148.5 418q0 261 148.5 419.5t400.5 158.5q269 0 419 -179q63 57 63 230zM630 218q111 0 172 93.5t61 244.5t-61 245t-172 94q-114 0 -175.5 -94t-61.5 -245t61.5 -244.5
t175.5 -93.5z" />
    <glyph glyph-name="uni01A2" unicode="&#x1a2;" horiz-adv-x="1913" 
d="M1784 1489v-1908h-304v1545l-155 -70v-871q-68 -85 -218 -145t-337 -60q-315 0 -491 187t-176 518v119q0 334 178 520t496 186q152 0 280.5 -42.5t211.5 -108.5l286 130h229zM425 788v-103q0 -452 358 -452q156 0 237 71v881q-77 70 -235 70q-194 0 -277 -112t-83 -339
v-16z" />
    <glyph glyph-name="uni01A3" unicode="&#x1a3;" horiz-adv-x="1522" 
d="M1441 1117v-1536h-305v1194l-105 -42v-530q-64 -104 -167.5 -163.5t-269.5 -59.5q-125 0 -223.5 42t-161 116.5t-95 173.5t-32.5 216v26q0 262 132 420t384 158q200 0 347 -140l287 125h209zM592 225q86 0 134 46v558q-48 59 -140 59q-49 0 -85.5 -18t-58.5 -47
t-35 -73.5t-17.5 -90.5t-4.5 -105v-26q0 -303 207 -303z" />
    <glyph glyph-name="uni01A4" unicode="&#x1a4;" horiz-adv-x="1747" 
d="M353 959h-280v146q-1 176 113.5 280t312.5 104h639q249 0 391.5 -139t142.5 -365q0 -227 -144.5 -364.5t-397.5 -137.5h-265v-483h-314v1232h-51q-149 0 -147 -186v-87zM865 735h214q131 0 200 67.5t69 182.5q0 114 -68.5 180.5t-201.5 66.5h-213v-497z" />
    <glyph glyph-name="uni01A5" unicode="&#x1a5;" horiz-adv-x="1295" 
d="M429 1117v-188h14q17 38 41.5 70.5t62 64t92.5 50t122 18.5q93 0 174 -36.5t143.5 -106.5t98.5 -181t36 -251q0 -137 -35 -247t-96 -181t-143.5 -109t-178.5 -38q-123 0 -201 57t-116 140h-10v-598h-309v1536q0 156 88.5 226t278.5 70q88 0 158 -17v-207q-47 14 -98 15
q-122 1 -122 -87zM427 559q0 -151 62.5 -241t172.5 -90q112 0 173.5 90.5t61.5 240.5q0 148 -61.5 237t-173.5 89t-173.5 -87.5t-61.5 -238.5z" />
    <glyph glyph-name="uni01A6" unicode="&#x1a6;" horiz-adv-x="1561" 
d="M1121 -351l-479 910h-222v-559h-320v1592h317v-102h248q261 0 408 -114t147 -327q0 -160 -72 -259.5t-209 -156.5l523 -970v-14h-341zM420 812h245q115 0 176.5 56t61.5 153q0 101 -60 157t-178 56h-245v-422z" />
    <glyph glyph-name="uni01A7" unicode="&#x1a7;" horiz-adv-x="1341" 
d="M404 1061h-302q3 200 155 324.5t399 124.5q248 0 406.5 -125t157.5 -326q1 -309 -405 -406l-163 -41q-130 -31 -191 -73t-62 -113q1 -82 73 -132.5t191 -50.5q127 0 206 58t86 167h305q-6 -238 -165 -363.5t-435 -125.5q-271 0 -424.5 120t-154.5 326q1 177 120 284.5
t327 153.5l134 32q111 26 173.5 68.5t61.5 116.5q0 74 -63 120.5t-176 46.5t-179 -49t-75 -137z" />
    <glyph glyph-name="uni01A8" unicode="&#x1a8;" horiz-adv-x="1150" 
d="M97 799q21 157 144.5 245t332.5 88q216 0 345 -94t128 -254q1 -126 -79.5 -206t-243.5 -113l-193 -39q-142 -29 -143 -111q1 -50 51 -82t130 -32q84 0 136.5 35.5t66.5 103.5l304 -16q-22 -162 -154 -254t-353 -92q-218 0 -357 102t-140 266q1 121 80.5 195.5
t242.5 107.5l203 40q76 17 109 44t32 68q1 49 -48 80t-122 31q-78 0 -127 -37t-61 -94z" />
    <glyph glyph-name="uni01A9" unicode="&#x1a9;" horiz-adv-x="1377" 
d="M1216 260v-260h-1064v153l450 589l-450 587v155h1042v-261h-601l344 -473v-15l-346 -475h625z" />
    <glyph glyph-name="uni01AA" unicode="&#x1aa;" horiz-adv-x="1336" 
d="M135 1148q-1 168 121 288.5t295 120.5q113 0 209.5 -55t153 -149.5t56.5 -204.5v-1171q0 -164 141 -164q37 0 90 9v-239q-61 -16 -151 -16q-183 0 -284 106.5t-101 303.5v776q-58 -16 -114 -16q-172 0 -293.5 120.5t-122.5 290.5zM553 997q64 0 106 40t41 114
q-1 71 -43 110t-104 39q-68 0 -108.5 -39t-41.5 -110q-1 -75 40 -114.5t110 -39.5z" />
    <glyph glyph-name="uni01AB" unicode="&#x1ab;" horiz-adv-x="802" 
d="M718 1117v-233h-210v-541q0 -61 26.5 -85t77.5 -24q11 0 16 1l118 25v-328q0 -166 -91.5 -257.5t-248.5 -91.5q-74 0 -130 14v204q38 -5 77 -5q33 0 61.5 6t55.5 20t43 42t16 68v52q-154 4 -243 86t-88 233v581h-153v233h153v268h310v-268h210z" />
    <glyph glyph-name="uni01AC" unicode="&#x1ac;" horiz-adv-x="1440" 
d="M1367 1489v-259h-456v-1230h-311v1230h-119q-148 0 -148 -181v-88h-260v144q0 181 105.5 282.5t302.5 101.5h886z" />
    <glyph glyph-name="uni01AD" unicode="&#x1ad;" horiz-adv-x="952" 
d="M775 1082v-219h-190v-520q0 -64 27.5 -89.5t87.5 -25.5q33 0 87 7v-228q-72 -27 -183 -27q-323 0 -323 330v553h-160v219h160v124q0 82 21 144t56 101t86.5 63t107 33.5t123.5 9.5q90 0 158 -17v-201q-38 9 -74 9q-33 0 -62 -6.5t-55 -21.5t-41.5 -44.5t-15.5 -69.5v-124
h190z" />
    <glyph glyph-name="uni01AE" unicode="&#x1ae;" horiz-adv-x="1368" 
d="M73 1230v259h1223v-259h-456v-1298q0 -107 159 -107h62v-244h-144q-388 0 -388 351v1298h-456z" />
    <glyph glyph-name="uni01AF" unicode="&#x1af;" horiz-adv-x="1781" 
d="M1509 1543h200q0 -104 -17 -181.5t-56.5 -138.5t-107 -97.5t-164.5 -47.5v-556q0 -244 -169.5 -393.5t-447.5 -149.5q-279 0 -448.5 149t-169.5 394v967h315v-940q0 -129 83.5 -211t219.5 -82t219 82t83 211v940h315v-244q38 9 65 28.5t42.5 43.5t24 62t11 74t2.5 90z
" />
    <glyph glyph-name="uni01B0" unicode="&#x1b0;" horiz-adv-x="1452" 
d="M1305 1179h179q-1 -180 -75 -272.5t-252 -107.5v-799h-297v203h-12q-38 -101 -127 -159.5t-212 -58.5q-170 0 -273.5 113.5t-104.5 307.5v711h310v-656q1 -99 53 -156.5t140 -57.5q89 0 151.5 61t61.5 168v641h310v-178q39 6 65.5 19.5t42.5 32t25 49t12 61.5t3 78z" />
    <glyph glyph-name="uni01B1" unicode="&#x1b1;" horiz-adv-x="1594" 
d="M92 681q0 182 73 317.5t206 219.5v12h-279v259h591v-325q-120 -49 -196.5 -174t-76.5 -285q0 -192 109 -318.5t278 -126.5t278 126.5t109 318.5q0 160 -76.5 285t-196.5 174v325h591v-259h-279v-12q133 -83 206 -219t73 -318q0 -203 -90 -363t-250.5 -249t-364.5 -89
t-364.5 89t-250.5 249t-90 363z" />
    <glyph glyph-name="uni01B2" unicode="&#x1b2;" horiz-adv-x="1368" 
d="M686 -20q-170 0 -299.5 58.5t-204 177.5t-74.5 285v988h316v-988q0 -268 262 -268q257 0 257 268v599q0 84 -30.5 116.5t-106.5 32.5q-39 0 -90 -8v251q80 18 148 18q188 0 294 -107t106 -303v-599q0 -165 -74.5 -284t-204 -178t-299.5 -59z" />
    <glyph glyph-name="uni01B3" unicode="&#x1b3;" horiz-adv-x="1616" 
d="M54 1489h342l384 -641h17l274 457q46 76 107.5 124t129.5 65t138 11.5t141 -32.5l-68 -237q-75 23 -119.5 5t-87.5 -86l-367 -580v-575h-313v575z" />
    <glyph glyph-name="uni01B4" unicode="&#x1b4;" horiz-adv-x="1303" 
d="M315 -419q-121 0 -195 32l70 231q80 -29 139 -13t88 90l19 47l-401 1149h326l231 -820h12l226 763q94 324 336 324q106 0 195 -41l-55 -237q-58 19 -91 14q-35 -4 -58 -34t-46 -96l-371 -1111q-99 -298 -425 -298z" />
    <glyph glyph-name="uni01B5" unicode="&#x1b5;" horiz-adv-x="1365" 
d="M113 0v187l362 507h-132v182h262l252 354h-745v259h1140v-186l-304 -427h121v-182h-251l-310 -434h746v-260h-1141z" />
    <glyph glyph-name="uni01B6" unicode="&#x1b6;" horiz-adv-x="1170" 
d="M118 0v185l232 287h-132v183h279l168 207v8h-528v247h901v-201l-203 -261h109v-183h-251l-169 -217v-8h533v-247h-939z" />
    <glyph glyph-name="uni01B7" unicode="&#x1b7;" horiz-adv-x="1405" 
d="M73 108h318q7 -126 93 -205t211 -79q143 0 226.5 105t83.5 270q0 180 -99.5 286.5t-258.5 106.5h-161v228l415 394v11h-745v264h1137v-226l-485 -456v-14q235 -19 379 -181t144 -407q0 -185 -80.5 -332.5t-225.5 -230.5t-328 -83q-173 0 -314 70t-223 195.5t-87 283.5z
" />
    <glyph glyph-name="uni01B8" unicode="&#x1b8;" horiz-adv-x="1405" 
d="M1332 108q-5 -158 -87 -283.5t-223 -195.5t-314 -70q-183 0 -328 83t-225.5 230.5t-80.5 332.5q0 245 144 407t379 181v14l-485 456v226h1137v-264h-745v-11l415 -394v-228h-161q-159 0 -258.5 -106.5t-99.5 -286.5q0 -165 84 -270t227 -105q125 0 211 79t93 205h317z
" />
    <glyph glyph-name="uni01B9" unicode="&#x1b9;" horiz-adv-x="1343" 
d="M1246 49q-7 -198 -164 -320t-403 -122q-248 0 -410.5 124t-162.5 321q0 77 27 146t80.5 127.5t141.5 98t202 50.5v12l-400 404v227h1014v-257h-627v-11l330 -343v-219h-161q-135 0 -207.5 -59t-72.5 -155q0 -94 68.5 -150t177.5 -56q103 0 173 49.5t76 132.5h318z" />
    <glyph glyph-name="uni01BA" unicode="&#x1ba;" horiz-adv-x="1178" 
d="M161 1117h903v-175l-325 -279q135 -32 210.5 -115t76.5 -192q0 -74 -32 -131.5t-91.5 -97.5t-130 -67t-163.5 -48q-114 -26 -160.5 -58.5t-45.5 -76.5q0 -51 45.5 -78t120.5 -27q85 0 142 35t61 115h289q0 -67 -32.5 -131t-91 -117t-152 -85t-205.5 -32
q-215 0 -344.5 93.5t-129.5 245.5q0 135 101 216.5t316 122.5q114 22 162 50t48 84q0 48 -39.5 74.5t-113.5 26.5h-242v176l266 227h-443v244z" />
    <glyph glyph-name="uni01BB" unicode="&#x1bb;" horiz-adv-x="1290" 
d="M121 0v227l523 484h-135v183h301q49 75 49 154q0 97 -64 154.5t-164 57.5q-103 0 -165 -61.5t-61 -167.5h-299q-1 218 145 348.5t382 130.5q238 0 384 -123t146 -318q0 -93 -37 -175h109v-183h-231q-88 -102 -229 -230l-218 -213v-11h626v-257h-1062z" />
    <glyph glyph-name="uni01BC" unicode="&#x1bc;" horiz-adv-x="1301" 
d="M700 -20q-152 0 -274 56.5t-192 157t-73 227.5h305q5 -86 72 -140t162 -54q111 0 182 73t71 189t-72.5 190t-185.5 75q-67 0 -127.5 -27t-94.5 -73l-280 50l47 528h-168v257h1102v-257h-651l-39 -373h9q40 56 120 92t176 36q202 0 335 -138.5t132 -351.5
q1 -227 -153.5 -372t-402.5 -145z" />
    <glyph glyph-name="uni01BD" unicode="&#x1bd;" horiz-adv-x="1341" 
d="M543 461l-276 12l49 369h-169v240h971v-240h-520l-27 -179q87 47 223 48q189 2 294 -93t106 -267q-1 -168 -119 -268t-363 -100q-96 0 -182 20.5t-156.5 60.5t-111.5 106.5t-41 152.5l302 14q5 -54 54.5 -81t134.5 -27q88 0 132.5 37.5t44.5 104.5q0 63 -47.5 101
t-132.5 38q-117 0 -166 -49z" />
    <glyph glyph-name="uni01BE" unicode="&#x1be;" horiz-adv-x="1178" 
d="M771 302q0 23 -9 42.5t-31 37.5t-38.5 29t-51.5 31q-45 26 -69 41.5t-63.5 50.5t-60.5 70.5t-38 92t-17 124.5v42h-158v219h158v269h307v-269h189v-219h-189v-45q0 -39 11 -72t24 -53.5t41 -42.5t45 -32.5t53 -29.5q28 -15 41.5 -23t38 -24.5t37.5 -29.5t30.5 -35t26 -44
t14.5 -53t6 -66q1 -146 -128.5 -239.5t-342.5 -93.5q-113 0 -207.5 32.5t-153.5 85.5t-91.5 117t-32.5 130h290q5 -79 62.5 -115.5t137.5 -36.5q79 0 124.5 29t44.5 80z" />
    <glyph glyph-name="uni01BF" unicode="&#x1bf;" horiz-adv-x="1380" 
d="M482 1007q106 125 279 125q207 0 321 -149t114 -399v-53q0 -145 -46 -258t-139 -196t-218.5 -142.5t-300.5 -107.5v-243h-307v1533h286zM492 65q186 49 291.5 166t105.5 300v53q0 64 -11 117t-34.5 95.5t-65 66.5t-98.5 24q-137 0 -188 -101v-721z" />
    <glyph glyph-name="uni01C0" unicode="&#x1c0;" horiz-adv-x="613" 
d="M397 1463v-1463h-180v1463h180z" />
    <glyph glyph-name="uni01C1" unicode="&#x1c1;" horiz-adv-x="806" 
d="M364 1463v-1463h-180v1463h180zM633 1463v-1463h-180v1463h180z" />
    <glyph glyph-name="uni01C2" unicode="&#x1c2;" horiz-adv-x="912" 
d="M546 1463v-395h271v-183h-271v-293h274v-183h-274v-409h-180v409h-272v183h272v293h-274v183h274v395h180z" />
    <glyph glyph-name="uni01C3" unicode="&#x1c3;" horiz-adv-x="664" 
d="M494 1489l-29 -1042h-266l-29 1042h324zM332 -19q-72 0 -123.5 51t-50.5 124q-1 71 50.5 122t123.5 51q70 0 122 -51t53 -122q-1 -72 -53 -123.5t-122 -51.5z" />
    <glyph glyph-name="uni01C5" unicode="&#x1c5;" horiz-adv-x="2660" 
d="M657 0h-528v1489h533q337 0 530.5 -198t193.5 -545q0 -349 -194 -547.5t-535 -198.5zM1607 0v185l547 677v8h-528v247h901v-201l-513 -661v-8h532v-247h-939zM444 270h200q214 0 321 115.5t107 360.5q0 244 -107 359t-320 115h-201v-950zM1927 1581l146 -177l147 177h264
v-10l-296 -320h-230l-295 320v10h264z" />
    <glyph glyph-name="uni01C6" unicode="&#x1c6;" horiz-adv-x="2288" 
d="M535 -18q-96 0 -178.5 38t-143.5 109t-96 181t-35 247q0 140 36 251t99 181t144 106.5t174 36.5q67 0 122 -18t92 -50t61.5 -64.5t41.5 -70.5h10v560h309v-1489h-306v179h-13q-38 -83 -116 -140t-201 -57zM1234 0v185l547 677v8h-528v247h901v-201l-513 -661v-8h532v-247
h-939zM633 228q110 0 172.5 90t62.5 241t-61.5 238.5t-173.5 87.5t-173 -89t-61 -237q0 -150 61.5 -240.5t172.5 -90.5zM1554 1581l146 -177l147 177h264v-10l-296 -320h-230l-295 320v10h264z" />
    <glyph glyph-name="uni01C7" unicode="&#x1c7;" horiz-adv-x="2329" 
d="M129 0v1489h315v-1229h639v-260h-954zM1888 1489h311v-1038q-1 -215 -140.5 -343t-367.5 -128q-103 0 -189.5 27.5t-152.5 80.5t-102.5 137.5t-36.5 193.5h314q1 -88 50.5 -137.5t132.5 -49.5q87 0 133.5 56t47.5 163v1038z" />
    <glyph glyph-name="uni01C8" unicode="&#x1c8;" horiz-adv-x="1720" 
d="M129 0v1489h315v-1229h639v-260h-954zM1286 1117h310v-1172q0 -364 -424 -364q-16 0 -62 2v242q32 -2 41 -2q73 0 104 31t31 96v1167zM1440 1261q-69 0 -118 46t-49 111t49 111t118 46t118.5 -46.5t49.5 -110.5q0 -65 -49.5 -111t-118.5 -46z" />
    <glyph glyph-name="uni01C9" unicode="&#x1c9;" horiz-adv-x="1104" 
d="M639 1117h310v-1172q0 -364 -423 -364q-17 0 -63 2v242q32 -2 41 -2q73 0 104 31t31 96v1167zM433 1489v-1489h-309v1489h309zM793 1261q-69 0 -118 46t-49 111t49 111t118 46t118.5 -46.5t49.5 -110.5q0 -65 -49.5 -111t-118.5 -46z" />
    <glyph glyph-name="uni01CA" unicode="&#x1ca;" horiz-adv-x="2672" 
d="M1375 1489v-1489h-272l-648 937h-11v-937h-315v1489h277l643 -936h13v936h313zM2231 1489h312v-1038q-1 -215 -141 -343t-368 -128q-103 0 -189.5 27.5t-152.5 80.5t-102.5 137.5t-36.5 193.5h314q1 -88 50.5 -137.5t132.5 -49.5q87 0 133.5 56t47.5 163v1038z" />
    <glyph glyph-name="uni01CB" unicode="&#x1cb;" horiz-adv-x="2008" 
d="M1375 1489v-1489h-272l-648 937h-11v-937h-315v1489h277l643 -936h13v936h313zM1575 1117h310v-1172q0 -364 -423 -364q-17 0 -63 2v242q32 -2 41 -2q73 0 104 31t31 96v1167zM1729 1261q-69 0 -118 46t-49 111t49 111t118 46t118.5 -46.5t49.5 -110.5q0 -65 -49.5 -111
t-118.5 -46z" />
    <glyph glyph-name="uni01CC" unicode="&#x1cc;" horiz-adv-x="1831" 
d="M433 646v-646h-309v1117h295v-197h13q38 99 125.5 155.5t210.5 56.5q176 0 280.5 -113.5t104.5 -307.5v-711h-309v656q1 102 -52.5 160t-146.5 58q-95 0 -153 -61t-59 -167zM1397 1117h310v-1172q0 -364 -423 -364q-17 0 -63 2v242q32 -2 41 -2q73 0 104 31t31 96v1167z
M1551 1261q-69 0 -118 46t-49 111t49 111t118 46t118.5 -46.5t49.5 -110.5q0 -65 -49.5 -111t-118.5 -46z" />
    <glyph glyph-name="uni01CD" unicode="&#x1cd;" horiz-adv-x="1531" 
d="M386 0h-337l514 1489h406l513 -1489h-337l-111 340h-537zM620 1953l146 -177l146 177h264v-10l-295 -320h-231l-294 320v10h264zM577 585h378l-183 564h-12z" />
    <glyph glyph-name="uni01CE" unicode="&#x1ce;" horiz-adv-x="1188" 
d="M442 -21q-166 0 -268.5 86t-102.5 247q0 72 23 129t60.5 94t93.5 63t114 39t129 19l88.5 9t66.5 9t53.5 12t33.5 16t22.5 23t5.5 31v5q0 69 -43 106.5t-122 37.5q-80 0 -131.5 -35t-67.5 -93l-286 23q33 155 160 243.5t326 88.5q96 0 179.5 -22.5t150.5 -67t105.5 -119
t38.5 -170.5v-753h-294v155h-8q-43 -82 -125.5 -129t-201.5 -47zM463 1581l146 -177l146 177h264v-10l-295 -320h-231l-294 320v10h264zM531 193q101 0 167 59t66 147v119q-39 -27 -216 -50q-181 -25 -181 -146q0 -62 45 -95.5t119 -33.5z" />
    <glyph glyph-name="uni01CF" unicode="&#x1cf;" horiz-adv-x="574" 
d="M444 1489v-1489h-315v1489h315zM142 1953l146 -177l146 177h264v-10l-295 -320h-231l-294 320v10h264z" />
    <glyph glyph-name="uni01D0" unicode="&#x1d0;" horiz-adv-x="557" 
d="M124 0v1117h309v-1117h-309zM133 1581l146 -177l146 177h264v-10l-295 -320h-230l-295 320v10h264z" />
    <glyph glyph-name="uni01D1" unicode="&#x1d1;" horiz-adv-x="1601" 
d="M1498 745q0 -179 -53.5 -324.5t-147 -241.5t-221 -147.5t-275.5 -51.5q-149 0 -276.5 52t-221.5 148t-147 241.5t-53 323.5q0 179 53 324.5t147 241.5t221.5 147.5t276.5 51.5q148 0 275.5 -51.5t221 -147.5t147 -241.5t53.5 -324.5zM1179 745q0 233 -102 359.5
t-276 126.5q-175 0 -276.5 -126.5t-101.5 -359.5t101.5 -360t276.5 -127q174 0 276 127t102 360zM655 1953l146 -177l146 177h264v-10l-295 -320h-231l-294 320v10h264z" />
    <glyph glyph-name="uni01D2" unicode="&#x1d2;" horiz-adv-x="1256" 
d="M628 -22q-252 0 -400.5 158t-148.5 418q0 261 148.5 419.5t400.5 158.5q253 0 401.5 -158.5t148.5 -419.5q0 -260 -149 -418t-401 -158zM630 218q111 0 172 93.5t61 244.5t-61 245t-172 94q-114 0 -175.5 -94t-61.5 -245t61.5 -244.5t175.5 -93.5zM482 1581l146 -177
l147 177h264v-10l-296 -320h-230l-295 320v10h264z" />
    <glyph glyph-name="uni01D3" unicode="&#x1d3;" horiz-adv-x="1493" 
d="M1049 1489h315v-967q0 -244 -169.5 -393.5t-447.5 -149.5q-279 0 -448.5 149t-169.5 394v967h315v-940q0 -129 83.5 -211t219.5 -82t219 82t83 211v940zM601 1953l146 -177l146 177h264v-10l-295 -320h-231l-294 320v10h264z" />
    <glyph glyph-name="uni01D4" unicode="&#x1d4;" horiz-adv-x="1273" 
d="M840 476v641h310v-1117h-298v203h-11q-38 -101 -127 -159.5t-212 -58.5q-170 0 -273.5 113.5t-104.5 307.5v711h309v-656q1 -99 53.5 -156.5t140.5 -57.5q89 0 151.5 61t61.5 168zM492 1581l147 -177l146 177h264v-10l-296 -320h-230l-295 320v10h264z" />
    <glyph glyph-name="uni01D5" unicode="&#x1d5;" horiz-adv-x="1493" 
d="M1049 1489h315v-967q0 -244 -169.5 -393.5t-447.5 -149.5q-279 0 -448.5 149t-169.5 394v967h315v-940q0 -129 83.5 -211t219.5 -82t219 82t83 211v940zM1101 2234v-168h-708v168h708zM526 1642q-63 0 -108 44t-45 105t45 104t108 43t107 -43t44 -104t-44 -105t-107 -44z
M971 1642q-63 0 -108 44t-45 105t45 104t108 43t107 -43t44 -104t-44 -105t-107 -44z" />
    <glyph glyph-name="uni01D6" unicode="&#x1d6;" horiz-adv-x="1273" 
d="M840 476v641h310v-1117h-298v203h-11q-38 -101 -127 -159.5t-212 -58.5q-170 0 -273.5 113.5t-104.5 307.5v711h309v-656q1 -99 53.5 -156.5t140.5 -57.5q89 0 151.5 61t61.5 168zM992 1862v-168h-708v168h708zM417 1270q-63 0 -108 43.5t-45 104.5t45 104.5t108 43.5
t107 -43t44 -105q0 -61 -44 -104.5t-107 -43.5zM862 1270q-63 0 -108 43.5t-45 104.5t45 104.5t108 43.5t107 -43t44 -105q0 -61 -44 -104.5t-107 -43.5z" />
    <glyph glyph-name="uni01D7" unicode="&#x1d7;" horiz-adv-x="1493" 
d="M1049 1489h315v-967q0 -244 -169.5 -393.5t-447.5 -149.5q-279 0 -448.5 149t-169.5 394v967h315v-940q0 -129 83.5 -211t219.5 -82t219 82t83 211v940zM628 1961l200 256h278l-256 -256h-222zM960 1590q-60 0 -103 41t-43 98q0 58 43 99t103 41q61 0 103 -40.5t42 -99.5
q0 -57 -42.5 -98t-102.5 -41zM532 1590q-60 0 -103 41t-43 98q0 58 43 99t103 41q61 0 103.5 -41t42.5 -99q0 -57 -42.5 -98t-103.5 -41z" />
    <glyph glyph-name="uni01D8" unicode="&#x1d8;" horiz-adv-x="1273" 
d="M840 476v641h310v-1117h-298v203h-11q-38 -101 -127 -159.5t-212 -58.5q-170 0 -273.5 113.5t-104.5 307.5v711h309v-656q1 -99 53.5 -156.5t140.5 -57.5q89 0 151.5 61t61.5 168zM527 1633l154 331h287l-222 -331h-219zM417 1270q-63 0 -108 43.5t-45 104.5t45 104.5
t108 43.5t107 -43t44 -105q0 -61 -44 -104.5t-107 -43.5zM862 1270q-63 0 -108 43.5t-45 104.5t45 104.5t108 43.5t107 -43t44 -105q0 -61 -44 -104.5t-107 -43.5z" />
    <glyph glyph-name="uni01D9" unicode="&#x1d9;" horiz-adv-x="1493" 
d="M1049 1489h315v-967q0 -244 -169.5 -393.5t-447.5 -149.5q-279 0 -448.5 149t-169.5 394v967h315v-940q0 -129 83.5 -211t219.5 -82t219 82t83 211v940zM613 2135l135 -111l135 111h260v-16l-288 -230h-212l-291 233v13h261zM830 1767q0 50 38.5 84t102.5 34
q60 0 100 -34t40 -84q0 -51 -39.5 -85t-100.5 -34q-64 0 -102.5 34t-38.5 85zM386 1768q0 50 38.5 84.5t99.5 34.5q64 0 102.5 -34.5t38.5 -85.5t-39 -84.5t-102 -33.5q-62 0 -100 33.5t-38 85.5z" />
    <glyph glyph-name="uni01DA" unicode="&#x1da;" horiz-adv-x="1273" 
d="M840 476v641h310v-1117h-298v203h-11q-38 -101 -127 -159.5t-212 -58.5q-170 0 -273.5 113.5t-104.5 307.5v711h309v-656q1 -99 53.5 -156.5t140.5 -57.5q89 0 151.5 61t61.5 168zM487 1864l152 -139l152 139h258v-12l-313 -281h-196l-314 284v9h261zM747 1376
q0 54 42 92.5t103 38.5q62 0 103.5 -38.5t41.5 -92.5t-41.5 -91.5t-103.5 -37.5t-103.5 37.5t-41.5 91.5zM241 1377q0 53 41 91.5t102 38.5q62 0 104 -38t42 -92q0 -55 -42 -91.5t-104 -36.5q-61 0 -102 37t-41 91z" />
    <glyph glyph-name="uni01DB" unicode="&#x1db;" horiz-adv-x="1493" 
d="M1049 1489h315v-967q0 -244 -169.5 -393.5t-447.5 -149.5q-279 0 -448.5 149t-169.5 394v967h315v-940q0 -129 83.5 -211t219.5 -82t219 82t83 211v940zM828 1767q-1 51 39 84.5t102 33.5t100 -34t39 -84q-1 -50 -39 -84.5t-100 -34.5q-63 0 -102.5 34t-38.5 85z
M384 1768q-1 50 38 84.5t100 34.5q62 0 102 -34.5t41 -85.5q-1 -51 -41 -84.5t-102 -33.5t-100.5 33.5t-37.5 85.5zM708 2065l132 -192h-163l-185 192h216z" />
    <glyph glyph-name="uni01DC" unicode="&#x1dc;" horiz-adv-x="1273" 
d="M840 476v641h310v-1117h-298v203h-11q-38 -101 -127 -159.5t-212 -58.5q-170 0 -273.5 113.5t-104.5 307.5v711h309v-656q1 -99 53.5 -156.5t140.5 -57.5q89 0 151.5 61t61.5 168zM585 1863l203 -311h-250l-286 311h333zM745 1376q0 55 42.5 93t103.5 38t103 -38.5
t42 -92.5t-41.5 -91.5t-103.5 -37.5t-104 37.5t-42 91.5zM239 1377q0 53 41 91.5t102 38.5q62 0 104 -38t42 -92t-41.5 -91t-104.5 -37q-61 0 -102 37t-41 91z" />
    <glyph glyph-name="uni01DD" unicode="&#x1dd;" horiz-adv-x="1224" 
d="M591 1139q257 0 405.5 -154.5t148.5 -420.5q0 -260 -147.5 -419.5t-393.5 -159.5q-112 0 -206.5 36t-166 105t-112 178.5t-40.5 248.5v85h760v1q0 125 -68 197t-185 72q-78 0 -134.5 -33.5t-79.5 -96.5l-287 19q33 157 167 249.5t339 92.5zM839 446h-469
q1 -100 64.5 -164.5t164.5 -64.5t168 66t72 163z" />
    <glyph glyph-name="uni01DE" unicode="&#x1de;" horiz-adv-x="1531" 
d="M386 0h-337l514 1489h406l513 -1489h-337l-111 340h-537zM1120 2234v-168h-708v168h708zM577 585h378l-183 564h-12zM545 1642q-63 0 -108 44t-45 105t45 104t108 43t107 -43t44 -104t-44 -105t-107 -44zM990 1642q-63 0 -108 44t-45 105t45 104t108 43t107 -43t44 -104
t-44 -105t-107 -44z" />
    <glyph glyph-name="uni01DF" unicode="&#x1df;" horiz-adv-x="1188" 
d="M442 -21q-166 0 -268.5 86t-102.5 247q0 72 23 129t60.5 94t93.5 63t114 39t129 19l88.5 9t66.5 9t53.5 12t33.5 16t22.5 23t5.5 31v5q0 69 -43 106.5t-122 37.5q-80 0 -131.5 -35t-67.5 -93l-286 23q33 155 160 243.5t326 88.5q96 0 179.5 -22.5t150.5 -67t105.5 -119
t38.5 -170.5v-753h-294v155h-8q-43 -82 -125.5 -129t-201.5 -47zM963 1862v-168h-708v168h708zM531 193q101 0 167 59t66 147v119q-39 -27 -216 -50q-181 -25 -181 -146q0 -62 45 -95.5t119 -33.5zM388 1270q-63 0 -108 43.5t-45 104.5t45 104.5t108 43.5t107 -43t44 -105
q0 -61 -44 -104.5t-107 -43.5zM833 1270q-63 0 -108 43.5t-45 104.5t45 104.5t108 43.5t107 -43t44 -105q0 -61 -44 -104.5t-107 -43.5z" />
    <glyph glyph-name="uni01E0" unicode="&#x1e0;" horiz-adv-x="1531" 
d="M386 0h-337l514 1489h406l513 -1489h-337l-111 340h-537zM1120 2234v-168h-708v168h708zM577 585h378l-183 564h-12zM767 1642q-64 0 -110 43.5t-46 104.5t45.5 104t110.5 43q64 0 109 -43t45 -104t-45 -104.5t-109 -43.5z" />
    <glyph glyph-name="uni01E1" unicode="&#x1e1;" horiz-adv-x="1188" 
d="M442 -21q-166 0 -268.5 86t-102.5 247q0 72 23 129t60.5 94t93.5 63t114 39t129 19l88.5 9t66.5 9t53.5 12t33.5 16t22.5 23t5.5 31v5q0 69 -43 106.5t-122 37.5q-80 0 -131.5 -35t-67.5 -93l-286 23q33 155 160 243.5t326 88.5q96 0 179.5 -22.5t150.5 -67t105.5 -119
t38.5 -170.5v-753h-294v155h-8q-43 -82 -125.5 -129t-201.5 -47zM964 1855v-168h-709v168h709zM531 193q101 0 167 59t66 147v119q-39 -27 -216 -50q-181 -25 -181 -146q0 -62 45 -95.5t119 -33.5zM610 1263q-64 0 -109.5 43.5t-45.5 104.5q0 62 45.5 105t109.5 43
t109.5 -43.5t45.5 -104.5t-45.5 -104.5t-109.5 -43.5z" />
    <glyph glyph-name="uni01E2" unicode="&#x1e2;" horiz-adv-x="2109" 
d="M49 0l638 1489h1301v-259h-688v-355h637v-260h-637v-355h691v-260h-1006v340h-450l-140 -340h-346zM636 585h349v595h-104zM1695 1862v-168h-708v168h708z" />
    <glyph glyph-name="uni01E3" unicode="&#x1e3;" horiz-adv-x="1871" 
d="M1299 -22q-138 0 -245.5 53.5t-161.5 151.5h-8q-44 -93 -162 -148.5t-262 -55.5q-178 0 -283.5 86t-105.5 247q0 72 23 129t61 94t93.5 63t113.5 39t129 19q59 6 88.5 9.5t67 9.5t53.5 12t33 16t22.5 22.5t5.5 30.5v5q0 69 -43 106.5t-122 37.5q-80 0 -131.5 -35
t-67.5 -93l-286 23q34 156 161 244t330 88q101 0 186.5 -35t132.5 -111q128 146 346 146q112 0 207 -36t166.5 -105t112 -178.5t40.5 -248.5v-85h-762q0 -124 68.5 -197t184.5 -73q78 0 135 33.5t81 96.5l285 -19q-33 -156 -165 -249t-321 -93zM1268 1489v-168h-708v168h708
zM531 193q101 0 167 59t66 147v119q-39 -27 -216 -50q-181 -25 -181 -146q0 -62 45 -95.5t119 -33.5zM1031 671h470q-1 100 -64.5 164.5t-163.5 64.5q-102 0 -169.5 -66t-72.5 -163z" />
    <glyph glyph-name="uni01E4" unicode="&#x1e4;" horiz-adv-x="1557" 
d="M1520 481v-112h-108q-65 -184 -225 -286.5t-380 -102.5q-318 0 -511 206.5t-193 556.5q0 177 53.5 323t147.5 242.5t221.5 149t274.5 52.5q252 0 429 -140t208 -362h-320q-30 106 -111 164.5t-201 58.5q-174 0 -278 -128t-104 -357q0 -231 103 -359.5t282 -128.5
q186 0 275 111h-255v112h309q10 40 11 79h-320v237h623v-188q0 -69 -10 -128h79z" />
    <glyph glyph-name="uni01E5" unicode="&#x1e5;" horiz-adv-x="1296" 
d="M627 -442q-217 0 -349.5 86.5t-161.5 224.5l287 39q21 -56 78 -92t153 -36q108 0 170.5 51.5t62.5 161.5v205h-13q-35 -78 -115 -130t-204 -52q-96 0 -177.5 33.5t-143.5 99t-97 171t-35 241.5q0 138 36 248.5t98.5 180t144 106t174.5 36.5q67 0 122.5 -18.5t93 -50
t62 -64t41.5 -70.5h11v188h308v-454h207v-183h-207v-491q0 -208 -149.5 -319.5t-396.5 -111.5zM633 249q95 0 154.5 60t75.5 171h-208v183h205q-19 105 -77.5 163.5t-149.5 58.5q-112 0 -173 -88.5t-61 -234.5q0 -147 60.5 -230t173.5 -83z" />
    <glyph glyph-name="uni01E6" unicode="&#x1e6;" horiz-adv-x="1557" 
d="M1117 1008q-30 106 -111 164.5t-201 58.5q-174 0 -278 -128t-104 -357q0 -231 103 -359.5t282 -128.5q156 0 246.5 81t93.5 221h-320v237h623v-188q0 -145 -48 -263.5t-133 -198.5t-204 -123.5t-259 -43.5q-318 0 -511 206.5t-193 556.5q0 177 53.5 323t147.5 242.5
t221.5 149t274.5 52.5q252 0 429 -140t208 -362h-320zM647 1953l146 -177l147 177h264v-10l-296 -320h-230l-295 320v10h264z" />
    <glyph glyph-name="uni01E7" unicode="&#x1e7;" horiz-adv-x="1296" 
d="M627 -442q-217 0 -349.5 86.5t-161.5 224.5l287 39q21 -56 78 -92t153 -36q108 0 170.5 51.5t62.5 161.5v205h-13q-35 -78 -115 -130t-204 -52q-96 0 -177.5 33.5t-143.5 99t-97 171t-35 241.5q0 138 36 248.5t98.5 180t144 106t174.5 36.5q67 0 122.5 -18.5t93 -50
t62 -64t41.5 -70.5h11v188h308v-1128q0 -208 -149.5 -319.5t-396.5 -111.5zM633 249q112 0 173.5 82.5t61.5 230.5q0 149 -61.5 236t-173.5 87t-173 -88.5t-61 -234.5q0 -147 60.5 -230t173.5 -83zM488 1581l146 -177l146 177h264v-10l-295 -320h-230l-295 320v10h264z" />
    <glyph glyph-name="uni01E8" unicode="&#x1e8;" horiz-adv-x="1412" 
d="M129 0v1489h315v-656h20l536 656h377l-552 -666l559 -823h-377l-408 612l-155 -189v-423h-315zM559 1953l146 -177l146 177h264v-10l-295 -320h-231l-294 320v10h264z" />
    <glyph glyph-name="uni01E9" unicode="&#x1e9;" horiz-adv-x="1191" 
d="M124 0v1489h309v-796h17l358 424h356l-415 -484l436 -633h-363l-305 450l-84 -95v-355h-309zM133 1953l146 -177l146 177h264v-10l-295 -320h-230l-295 320v10h264z" />
    <glyph glyph-name="uni01EA" unicode="&#x1ea;" horiz-adv-x="1601" 
d="M1498 745q0 -300 -142 -495t-378 -250q-75 -36 -113.5 -72.5t-37.5 -84.5q-2 -73 70 -73q26 0 77 18l32 -160q-79 -44 -166 -44q-98 0 -162.5 50t-81.5 142q-24 121 45 220q-244 50 -391 247t-147 502q0 179 53 324.5t147 241.5t221.5 147.5t276.5 51.5
q148 0 275.5 -51.5t221 -147.5t147 -241.5t53.5 -324.5zM1179 745q0 233 -102 359.5t-276 126.5q-175 0 -276.5 -126.5t-101.5 -359.5t101.5 -360t276.5 -127q174 0 276 127t102 360z" />
    <glyph glyph-name="uni01EB" unicode="&#x1eb;" horiz-adv-x="1256" 
d="M637 -417q-98 0 -162.5 50t-81.5 142q-11 60 2 120.5t51 108.5q-173 52 -270 197t-97 353q0 261 148.5 419.5t400.5 158.5q253 0 401.5 -158.5t148.5 -419.5q0 -223 -111 -373t-307 -190q-66 -33 -101.5 -68.5t-34.5 -81.5q-2 -72 71 -72q27 0 76 17l32 -160
q-77 -43 -166 -43zM630 218q111 0 172 93.5t61 244.5t-61 245t-172 94q-114 0 -175.5 -94t-61.5 -245t61.5 -244.5t175.5 -93.5z" />
    <glyph glyph-name="uni01EC" unicode="&#x1ec;" horiz-adv-x="1601" 
d="M1498 745q0 -300 -142 -495t-378 -250q-75 -36 -113.5 -72.5t-37.5 -84.5q-2 -73 70 -73q26 0 77 18l32 -160q-79 -44 -166 -44q-98 0 -162.5 50t-81.5 142q-24 121 45 220q-244 50 -391 247t-147 502q0 179 53 324.5t147 241.5t221.5 147.5t276.5 51.5
q148 0 275.5 -51.5t221 -147.5t147 -241.5t53.5 -324.5zM1179 745q0 233 -102 359.5t-276 126.5q-175 0 -276.5 -126.5t-101.5 -359.5t101.5 -360t276.5 -127q174 0 276 127t102 360zM1155 1862v-168h-708v168h708z" />
    <glyph glyph-name="uni01ED" unicode="&#x1ed;" horiz-adv-x="1256" 
d="M637 -417q-98 0 -162.5 50t-81.5 142q-11 60 2 120.5t51 108.5q-173 52 -270 197t-97 353q0 261 148.5 419.5t400.5 158.5q253 0 401.5 -158.5t148.5 -419.5q0 -223 -111 -373t-307 -190q-66 -33 -101.5 -68.5t-34.5 -81.5q-2 -72 71 -72q27 0 76 17l32 -160
q-77 -43 -166 -43zM630 218q111 0 172 93.5t61 244.5t-61 245t-172 94q-114 0 -175.5 -94t-61.5 -245t61.5 -244.5t175.5 -93.5zM983 1489v-168h-709v168h709z" />
    <glyph glyph-name="uni01EE" unicode="&#x1ee;" horiz-adv-x="1405" 
d="M73 108h318q7 -126 93 -205t211 -79q143 0 226.5 105t83.5 270q0 180 -99.5 286.5t-258.5 106.5h-161v228l415 394v11h-745v264h1137v-226l-485 -456v-14q235 -19 379 -181t144 -407q0 -185 -80.5 -332.5t-225.5 -230.5t-328 -83q-173 0 -314 70t-223 195.5t-87 283.5z
M557 1953l146 -177l146 177h264v-10l-295 -320h-230l-295 320v10h264z" />
    <glyph glyph-name="uni01EF" unicode="&#x1ef;" horiz-adv-x="1343" 
d="M97 49h318q6 -83 76.5 -132.5t173.5 -49.5q109 0 177 56t68 150q0 96 -72.5 155t-207.5 59h-161v219l330 343v11h-627v257h1014v-227l-400 -404v-12q114 -11 202.5 -50.5t142 -98t80.5 -127.5t27 -146q0 -130 -75 -232t-205.5 -157.5t-293.5 -55.5q-246 0 -403 122
t-164 320zM525 1581l146 -177l146 177h264v-10l-295 -320h-230l-295 320v10h264z" />
    <glyph glyph-name="uni01F0" unicode="&#x1f0;" horiz-adv-x="557" 
d="M124 1117h309v-1172q0 -364 -423 -364q-16 0 -62 2v242q32 -2 40 -2q73 0 104.5 31t31.5 96v1167zM132 1581l147 -177l146 177h264v-10l-296 -320h-230l-295 320v10h264z" />
    <glyph glyph-name="uni01F1" unicode="&#x1f1;" horiz-adv-x="2855" 
d="M657 0h-528v1489h533q337 0 530.5 -198t193.5 -545q0 -349 -194 -547.5t-535 -198.5zM1603 0v187l743 1043h-745v259h1141v-186l-744 -1043h745v-260h-1140zM444 270h200q214 0 321 115.5t107 360.5q0 244 -107 359t-320 115h-201v-950z" />
    <glyph glyph-name="uni01F2" unicode="&#x1f2;" horiz-adv-x="2660" 
d="M657 0h-528v1489h533q337 0 530.5 -198t193.5 -545q0 -349 -194 -547.5t-535 -198.5zM1607 0v185l547 677v8h-528v247h901v-201l-513 -661v-8h532v-247h-939zM444 270h200q214 0 321 115.5t107 360.5q0 244 -107 359t-320 115h-201v-950z" />
    <glyph glyph-name="uni01F3" unicode="&#x1f3;" horiz-adv-x="2288" 
d="M535 -18q-96 0 -178.5 38t-143.5 109t-96 181t-35 247q0 140 36 251t99 181t144 106.5t174 36.5q67 0 122 -18t92 -50t61.5 -64.5t41.5 -70.5h10v560h309v-1489h-306v179h-13q-38 -83 -116 -140t-201 -57zM1234 0v185l547 677v8h-528v247h901v-201l-513 -661v-8h532v-247
h-939zM633 228q110 0 172.5 90t62.5 241t-61.5 238.5t-173.5 87.5t-173 -89t-61 -237q0 -150 61.5 -240.5t172.5 -90.5z" />
    <glyph glyph-name="uni01F4" unicode="&#x1f4;" horiz-adv-x="1557" 
d="M1117 1008q-30 106 -111 164.5t-201 58.5q-174 0 -278 -128t-104 -357q0 -231 103 -359.5t282 -128.5q156 0 246.5 81t93.5 221h-320v237h623v-188q0 -145 -48 -263.5t-133 -198.5t-204 -123.5t-259 -43.5q-318 0 -511 206.5t-193 556.5q0 177 53.5 323t147.5 242.5
t221.5 149t274.5 52.5q252 0 429 -140t208 -362h-320zM681 1633l155 331h286l-222 -331h-219z" />
    <glyph glyph-name="uni01F5" unicode="&#x1f5;" horiz-adv-x="1296" 
d="M627 -442q-217 0 -349.5 86.5t-161.5 224.5l287 39q21 -56 78 -92t153 -36q108 0 170.5 51.5t62.5 161.5v205h-13q-35 -78 -115 -130t-204 -52q-96 0 -177.5 33.5t-143.5 99t-97 171t-35 241.5q0 138 36 248.5t98.5 180t144 106t174.5 36.5q67 0 122.5 -18.5t93 -50
t62 -64t41.5 -70.5h11v188h308v-1128q0 -208 -149.5 -319.5t-396.5 -111.5zM633 249q112 0 173.5 82.5t61.5 230.5q0 149 -61.5 236t-173.5 87t-173 -88.5t-61 -234.5q0 -147 60.5 -230t173.5 -83zM523 1261l154 331h287l-222 -331h-219z" />
    <glyph glyph-name="uni01F6" unicode="&#x1f6;" horiz-adv-x="2299" 
d="M1631 -20q-253 0 -400 137.5t-147 383.5v114h-640v-615h-315v1489h315v-614h640v614h314v-988q0 -125 61 -190.5t172 -65.5q110 0 170 65.5t60 190.5v586h315v-586q0 -247 -146.5 -384t-398.5 -137z" />
    <glyph glyph-name="uni01F7" unicode="&#x1f7;" horiz-adv-x="1532" 
d="M487 1489v-32q108 53 261 53q279 0 448 -172.5t169 -488.5v-52q-1 -318 -231 -566t-647 -379v-271h-316v1908h316zM487 115q273 104 413 281.5t141 400.5v55q0 70 -7.5 126.5t-28 109.5t-52.5 88.5t-83.5 57t-119.5 21.5q-161 0 -263 -102v-1038z" />
    <glyph glyph-name="uni01F8" unicode="&#x1f8;" horiz-adv-x="1505" 
d="M1375 1489v-1489h-272l-648 937h-11v-937h-315v1489h277l643 -936h13v936h313zM646 1633l-222 331h286l155 -331h-219z" />
    <glyph glyph-name="uni01F9" unicode="&#x1f9;" horiz-adv-x="1273" 
d="M433 646v-646h-309v1117h295v-197h13q38 99 125.5 155.5t210.5 56.5q176 0 280.5 -113.5t104.5 -307.5v-711h-309v656q1 102 -52.5 160t-146.5 58q-95 0 -153 -61t-59 -167zM530 1261l-222 331h286l155 -331h-219z" />
    <glyph glyph-name="uni01FA" unicode="&#x1fa;" horiz-adv-x="1531" 
d="M386 0h-337l514 1489h406l513 -1489h-337l-111 340h-537zM766 1585q-93 0 -158.5 61t-65.5 147t65.5 147t158.5 61t158.5 -61t65.5 -147t-65.5 -147t-158.5 -61zM577 585h378l-183 564h-12zM666 2070l146 210h259l-207 -210h-198zM766 1703q40 0 68.5 26t28.5 64
q0 37 -28 64t-69 27q-41 -1 -69.5 -27.5t-28.5 -63.5q0 -38 28.5 -64.5t69.5 -25.5z" />
    <glyph glyph-name="uni01FB" unicode="&#x1fb;" horiz-adv-x="1188" 
d="M442 -21q-166 0 -268.5 86t-102.5 247q0 72 23 129t60.5 94t93.5 63t114 39t129 19l88.5 9t66.5 9t53.5 12t33.5 16t22.5 23t5.5 31v5q0 69 -43 106.5t-122 37.5q-80 0 -131.5 -35t-67.5 -93l-286 23q33 155 160 243.5t326 88.5q96 0 179.5 -22.5t150.5 -67t105.5 -119
t38.5 -170.5v-753h-294v155h-8q-43 -82 -125.5 -129t-201.5 -47zM609 1213q-93 0 -158.5 61t-65.5 147t65.5 147t158.5 61t158.5 -61t65.5 -147t-65.5 -147t-158.5 -61zM531 193q101 0 167 59t66 147v119q-39 -27 -216 -50q-181 -25 -181 -146q0 -62 45 -95.5t119 -33.5z
M509 1697l146 211h258l-206 -211h-198zM609 1331q40 0 68.5 26t28.5 64q0 37 -28 63.5t-69 26.5q-41 -1 -69.5 -27t-28.5 -63q0 -38 28.5 -64.5t69.5 -25.5z" />
    <glyph glyph-name="uni01FC" unicode="&#x1fc;" horiz-adv-x="2109" 
d="M49 0l638 1489h1301v-259h-688v-355h637v-260h-637v-355h691v-260h-1006v340h-450l-140 -340h-346zM636 585h349v595h-104zM1230 1633l154 331h287l-222 -331h-219z" />
    <glyph glyph-name="uni01FD" unicode="&#x1fd;" horiz-adv-x="1871" 
d="M1299 -22q-138 0 -245.5 53.5t-161.5 151.5h-8q-44 -93 -162 -148.5t-262 -55.5q-178 0 -283.5 86t-105.5 247q0 72 23 129t61 94t93.5 63t113.5 39t129 19q59 6 88.5 9.5t67 9.5t53.5 12t33 16t22.5 22.5t5.5 30.5v5q0 69 -43 106.5t-122 37.5q-80 0 -131.5 -35
t-67.5 -93l-286 23q34 156 161 244t330 88q101 0 186.5 -35t132.5 -111q128 146 346 146q112 0 207 -36t166.5 -105t112 -178.5t40.5 -248.5v-85h-762q0 -124 68.5 -197t184.5 -73q78 0 135 33.5t81 96.5l285 -19q-33 -156 -165 -249t-321 -93zM531 193q101 0 167 59t66 147
v119q-39 -27 -216 -50q-181 -25 -181 -146q0 -62 45 -95.5t119 -33.5zM1031 671h470q-1 100 -64.5 164.5t-163.5 64.5q-102 0 -169.5 -66t-72.5 -163zM803 1261l154 331h287l-222 -331h-219z" />
    <glyph glyph-name="uni01FE" unicode="&#x1fe;" horiz-adv-x="1601" 
d="M337 -71l-142 96l108 155q-200 208 -200 565q0 179 53 324.5t147 241.5t221.5 147.5t276.5 51.5q204 0 362 -94l99 142l142 -96l-107 -152q201 -209 201 -565q0 -179 -53.5 -324.5t-147 -241.5t-221 -147.5t-275.5 -51.5q-207 0 -363 93zM1179 745q0 180 -64 302
l-511 -735q82 -54 197 -54q174 0 276 127t102 360zM487 444l510 733q-83 54 -196 54q-175 0 -276.5 -126.5t-101.5 -359.5q0 -181 64 -301zM689 1633l155 331h286l-222 -331h-219z" />
    <glyph glyph-name="uni01FF" unicode="&#x1ff;" horiz-adv-x="1256" 
d="M297 -71l-141 96l74 107q-151 157 -151 421q0 261 148 419t401 158q144 0 258 -54l72 104l143 -96l-75 -108q152 -160 152 -423q0 -260 -149 -418t-401 -158q-146 0 -259 55zM517 1260l154 331h287l-222 -331h-219zM415 397l323 467q-49 30 -108 30q-114 0 -175.5 -94
t-61.5 -245q0 -84 22 -158zM630 217q111 0 172 93.5t61 244.5q0 87 -21 157l-323 -465q47 -30 111 -30z" />
    <glyph glyph-name="uni0200" unicode="&#x200;" horiz-adv-x="1531" 
d="M386 0h-337l514 1489h406l513 -1489h-337l-111 340h-537zM577 585h378l-183 564h-12zM487 1633l-227 331h291l154 -331h-218zM846 1633l-156 331h282l88 -331h-214z" />
    <glyph glyph-name="uni0201" unicode="&#x201;" horiz-adv-x="1188" 
d="M442 -21q-166 0 -268.5 86t-102.5 247q0 72 23 129t60.5 94t93.5 63t114 39t129 19l88.5 9t66.5 9t53.5 12t33.5 16t22.5 23t5.5 31v5q0 69 -43 106.5t-122 37.5q-80 0 -131.5 -35t-67.5 -93l-286 23q33 155 160 243.5t326 88.5q96 0 179.5 -22.5t150.5 -67t105.5 -119
t38.5 -170.5v-753h-294v155h-8q-43 -82 -125.5 -129t-201.5 -47zM531 193q101 0 167 59t66 147v119q-39 -27 -216 -50q-181 -25 -181 -146q0 -62 45 -95.5t119 -33.5zM329 1261l-226 331h290l155 -331h-219zM689 1261l-156 331h282l88 -331h-214z" />
    <glyph glyph-name="uni0202" unicode="&#x202;" horiz-adv-x="1531" 
d="M386 0h-337l514 1489h406l513 -1489h-337l-111 340h-537zM404 1669q-1 134 97 218t263 84q163 0 261 -84t99 -218h-216q-1 56 -36.5 93t-107.5 37q-74 0 -109.5 -37.5t-34.5 -92.5h-216zM577 585h378l-183 564h-12z" />
    <glyph glyph-name="uni0203" unicode="&#x203;" horiz-adv-x="1188" 
d="M442 -21q-166 0 -268.5 86t-102.5 247q0 72 23 129t60.5 94t93.5 63t114 39t129 19l88.5 9t66.5 9t53.5 12t33.5 16t22.5 23t5.5 31v5q0 69 -43 106.5t-122 37.5q-80 0 -131.5 -35t-67.5 -93l-286 23q33 155 160 243.5t326 88.5q96 0 179.5 -22.5t150.5 -67t105.5 -119
t38.5 -170.5v-753h-294v155h-8q-43 -82 -125.5 -129t-201.5 -47zM247 1297q-1 134 97 218t263 84q163 0 261 -84t99 -218h-216q-1 56 -36.5 92.5t-107.5 36.5q-74 0 -109.5 -37t-34.5 -92h-216zM531 193q101 0 167 59t66 147v119q-39 -27 -216 -50q-181 -25 -181 -146
q0 -62 45 -95.5t119 -33.5z" />
    <glyph glyph-name="uni0204" unicode="&#x204;" horiz-adv-x="1254" 
d="M129 0v1489h1004v-259h-689v-355h637v-260h-637v-355h692v-260h-1007zM354 1633l-227 331h291l155 -331h-219zM713 1633l-155 331h282l88 -331h-215z" />
    <glyph glyph-name="uni0205" unicode="&#x205;" horiz-adv-x="1224" 
d="M633 -22q-257 0 -405.5 154.5t-148.5 420.5q0 260 147.5 419.5t393.5 159.5q112 0 206.5 -36t166 -105t112 -178.5t40.5 -248.5v-85h-760q0 -125 68 -197.5t185 -72.5q78 0 134.5 33.5t79.5 96.5l287 -19q-33 -157 -167 -249.5t-339 -92.5zM385 671h469
q-1 100 -64.5 164.5t-164.5 64.5t-168 -66t-72 -163zM334 1261l-227 331h291l155 -331h-219zM693 1261l-156 331h283l88 -331h-215z" />
    <glyph glyph-name="uni0206" unicode="&#x206;" horiz-adv-x="1254" 
d="M129 0v1489h1004v-259h-689v-355h637v-260h-637v-355h692v-260h-1007zM272 1669q-1 134 97 218t263 84q163 0 261.5 -84t99.5 -218h-216q-1 56 -37 93t-108 37q-74 0 -109.5 -37.5t-34.5 -92.5h-216z" />
    <glyph glyph-name="uni0207" unicode="&#x207;" horiz-adv-x="1224" 
d="M633 -22q-257 0 -405.5 154.5t-148.5 420.5q0 260 147.5 419.5t393.5 159.5q112 0 206.5 -36t166 -105t112 -178.5t40.5 -248.5v-85h-760q0 -125 68 -197.5t185 -72.5q78 0 134.5 33.5t79.5 96.5l287 -19q-33 -157 -167 -249.5t-339 -92.5zM252 1297q-1 134 97 218
t263 84q163 0 261 -84t99 -218h-216q-1 56 -36.5 92.5t-107.5 36.5q-74 0 -109.5 -37t-34.5 -92h-216zM385 671h469q-1 100 -64.5 164.5t-164.5 64.5t-168 -66t-72 -163z" />
    <glyph glyph-name="uni0208" unicode="&#x208;" horiz-adv-x="574" 
d="M444 1489v-1489h-315v1489h315zM9 1633l-227 331h291l155 -331h-219zM368 1633l-156 331h283l88 -331h-215z" />
    <glyph glyph-name="uni0209" unicode="&#x209;" horiz-adv-x="557" 
d="M124 0v1117h309v-1117h-309zM0 1261l-227 331h291l155 -331h-219zM359 1261l-155 331h282l88 -331h-215z" />
    <glyph glyph-name="uni020A" unicode="&#x20a;" horiz-adv-x="574" 
d="M444 1489v-1489h-315v1489h315zM-74 1669q-1 134 97 218t263 84q163 0 261.5 -84t99.5 -218h-216q-1 56 -37 93t-108 37q-74 0 -109.5 -37.5t-34.5 -92.5h-216z" />
    <glyph glyph-name="uni020B" unicode="&#x20b;" horiz-adv-x="557" 
d="M124 0v1117h309v-1117h-309zM-83 1297q-1 134 97 218t263 84q163 0 261.5 -84t99.5 -218h-216q-1 56 -36.5 92.5t-108.5 36.5q-74 0 -109.5 -37t-34.5 -92h-216z" />
    <glyph glyph-name="uni020C" unicode="&#x20c;" horiz-adv-x="1601" 
d="M1498 745q0 -179 -53.5 -324.5t-147 -241.5t-221 -147.5t-275.5 -51.5q-149 0 -276.5 52t-221.5 148t-147 241.5t-53 323.5q0 179 53 324.5t147 241.5t221.5 147.5t276.5 51.5q148 0 275.5 -51.5t221 -147.5t147 -241.5t53.5 -324.5zM1179 745q0 233 -102 359.5
t-276 126.5q-175 0 -276.5 -126.5t-101.5 -359.5t101.5 -360t276.5 -127q174 0 276 127t102 360zM521 1633l-226 331h290l155 -331h-219zM881 1633l-156 331h282l88 -331h-214z" />
    <glyph glyph-name="uni020D" unicode="&#x20d;" horiz-adv-x="1256" 
d="M628 -22q-252 0 -400.5 158t-148.5 418q0 261 148.5 419.5t400.5 158.5q253 0 401.5 -158.5t148.5 -419.5q0 -260 -149 -418t-401 -158zM630 218q111 0 172 93.5t61 244.5t-61 245t-172 94q-114 0 -175.5 -94t-61.5 -245t61.5 -244.5t175.5 -93.5zM349 1261l-227 331h291
l155 -331h-219zM708 1261l-155 331h282l88 -331h-215z" />
    <glyph glyph-name="uni020E" unicode="&#x20e;" horiz-adv-x="1601" 
d="M1498 745q0 -179 -53.5 -324.5t-147 -241.5t-221 -147.5t-275.5 -51.5q-149 0 -276.5 52t-221.5 148t-147 241.5t-53 323.5q0 179 53 324.5t147 241.5t221.5 147.5t276.5 51.5q148 0 275.5 -51.5t221 -147.5t147 -241.5t53.5 -324.5zM1179 745q0 233 -102 359.5
t-276 126.5q-175 0 -276.5 -126.5t-101.5 -359.5t101.5 -360t276.5 -127q174 0 276 127t102 360zM439 1669q-1 134 97 218t263 84q163 0 261 -84t99 -218h-216q-1 56 -36.5 93t-107.5 37q-74 0 -109.5 -37.5t-34.5 -92.5h-216z" />
    <glyph glyph-name="uni020F" unicode="&#x20f;" horiz-adv-x="1256" 
d="M628 -22q-252 0 -400.5 158t-148.5 418q0 261 148.5 419.5t400.5 158.5q253 0 401.5 -158.5t148.5 -419.5q0 -260 -149 -418t-401 -158zM630 218q111 0 172 93.5t61 244.5t-61 245t-172 94q-114 0 -175.5 -94t-61.5 -245t61.5 -244.5t175.5 -93.5zM266 1297
q-1 134 97 218t263 84q163 0 261.5 -84t99.5 -218h-216q-1 56 -36.5 92.5t-108.5 36.5q-74 0 -109.5 -37t-34.5 -92h-216z" />
    <glyph glyph-name="uni0210" unicode="&#x210;" horiz-adv-x="1344" 
d="M129 0v1489h588q251 0 392.5 -131t141.5 -355q0 -152 -68 -260.5t-195 -163.5l316 -579h-348l-282 528h-230v-528h-315zM444 781h214q269 0 269 222q0 229 -270 229h-213v-451zM384 1633l-227 331h291l155 -331h-219zM743 1633l-155 331h282l88 -331h-215z" />
    <glyph glyph-name="uni0211" unicode="&#x211;" horiz-adv-x="837" 
d="M124 0v1117h300v-195h12q30 102 101.5 156.5t166.5 54.5q53 0 97 -11v-275q-55 17 -130 17q-103 0 -170.5 -65t-67.5 -167v-632h-309zM179 1261l-227 331h291l155 -331h-219zM538 1261l-155 331h282l88 -331h-215z" />
    <glyph glyph-name="uni0212" unicode="&#x212;" horiz-adv-x="1344" 
d="M129 0v1489h588q251 0 392.5 -131t141.5 -355q0 -152 -68 -260.5t-195 -163.5l316 -579h-348l-282 528h-230v-528h-315zM444 781h214q269 0 269 222q0 229 -270 229h-213v-451zM301 1669q-1 134 97 218t263 84q163 0 261.5 -84t99.5 -218h-216q-1 56 -37 93t-108 37
q-74 0 -109.5 -37.5t-34.5 -92.5h-216z" />
    <glyph glyph-name="uni0213" unicode="&#x213;" horiz-adv-x="837" 
d="M124 0v1117h300v-195h12q30 102 101.5 156.5t166.5 54.5q53 0 97 -11v-275q-55 17 -130 17q-103 0 -170.5 -65t-67.5 -167v-632h-309zM97 1297q-1 134 97 218t263 84q163 0 261 -84t99 -218h-216q-1 56 -36.5 92.5t-107.5 36.5q-74 0 -109.5 -37t-34.5 -92h-216z" />
    <glyph glyph-name="uni0214" unicode="&#x214;" horiz-adv-x="1493" 
d="M1049 1489h315v-967q0 -244 -169.5 -393.5t-447.5 -149.5q-279 0 -448.5 149t-169.5 394v967h315v-940q0 -129 83.5 -211t219.5 -82t219 82t83 211v940zM468 1633l-227 331h291l155 -331h-219zM827 1633l-156 331h282l88 -331h-214z" />
    <glyph glyph-name="uni0215" unicode="&#x215;" horiz-adv-x="1273" 
d="M840 476v641h310v-1117h-298v203h-11q-38 -101 -127 -159.5t-212 -58.5q-170 0 -273.5 113.5t-104.5 307.5v711h309v-656q1 -99 53.5 -156.5t140.5 -57.5q89 0 151.5 61t61.5 168zM359 1261l-227 331h291l155 -331h-219zM719 1261l-156 331h282l88 -331h-214z" />
    <glyph glyph-name="uni0216" unicode="&#x216;" horiz-adv-x="1493" 
d="M1049 1489h315v-967q0 -244 -169.5 -393.5t-447.5 -149.5q-279 0 -448.5 149t-169.5 394v967h315v-940q0 -129 83.5 -211t219.5 -82t219 82t83 211v940zM385 1669q-1 134 97 218t263 84q163 0 261.5 -84t99.5 -218h-216q-1 56 -37 93t-108 37q-74 0 -109.5 -37.5
t-34.5 -92.5h-216z" />
    <glyph glyph-name="uni0217" unicode="&#x217;" horiz-adv-x="1273" 
d="M840 476v641h310v-1117h-298v203h-11q-38 -101 -127 -159.5t-212 -58.5q-170 0 -273.5 113.5t-104.5 307.5v711h309v-656q1 -99 53.5 -156.5t140.5 -57.5q89 0 151.5 61t61.5 168zM276 1297q-1 134 97 218t263 84q163 0 261.5 -84t99.5 -218h-216q-1 56 -36.5 92.5
t-108.5 36.5q-74 0 -109.5 -37t-34.5 -92h-216z" />
    <glyph glyph-name="uni0218" unicode="&#x218;" horiz-adv-x="1341" 
d="M937 1061q-9 88 -75 137t-179 49t-176 -46.5t-63 -120.5q-1 -74 61.5 -116.5t173.5 -68.5l134 -32q208 -46 327 -153.5t120 -284.5q-1 -206 -154.5 -326t-424.5 -120q-276 0 -435 125.5t-165 363.5h305q7 -109 86 -167t206 -58q119 0 191 50.5t73 132.5q-1 71 -62 113
t-191 73l-162 41q-407 97 -406 406q-1 201 157.5 326t406.5 125q247 0 399 -124.5t155 -324.5h-302zM444 -487l91 359h286l-159 -359h-218z" />
    <glyph glyph-name="uni0219" unicode="&#x219;" horiz-adv-x="1150" 
d="M1053 799l-284 -18q-12 57 -60.5 94t-125.5 37q-73 0 -122.5 -31t-48.5 -80q-1 -41 32 -68t109 -44l203 -40q163 -33 242.5 -107.5t80.5 -195.5q-1 -164 -140.5 -266t-357.5 -102q-220 0 -352.5 92t-154.5 254l305 16q14 -68 66.5 -103.5t136.5 -35.5q80 0 130.5 32
t51.5 82q-1 82 -144 111l-193 39q-163 33 -243.5 113t-79.5 206q-1 160 128 254t345 94q209 0 332 -88t144 -245zM351 -477l90 359h286l-159 -359h-217z" />
    <glyph glyph-name="uni021A" unicode="&#x21a;" horiz-adv-x="1368" 
d="M73 1230v259h1223v-259h-456v-1230h-311v1230h-456zM452 -477l91 359h286l-159 -359h-218z" />
    <glyph glyph-name="uni021B" unicode="&#x21b;" horiz-adv-x="795" 
d="M718 1117v-233h-210v-541q0 -61 26.5 -85t77.5 -24q27 0 77 10l49 -230q-80 -26 -168 -29q-173 -7 -273 75t-99 243v581h-153v233h153v268h310v-268h210zM214 -477l90 359h287l-160 -359h-217z" />
    <glyph glyph-name="uni021C" unicode="&#x21c;" horiz-adv-x="1371" 
d="M237 319v236q383 113 527.5 213t144.5 262q0 225 -236 225q-105 0 -167 -43.5t-62 -116.5h-317q0 184 153 299.5t393 115.5q258 0 404.5 -111.5t146.5 -327.5q0 -223 -167 -387q91 -50 140 -136t49 -203q0 -161 -73 -294.5t-208 -230t-318 -161t-410 -95.5v251
q691 132 691 541q0 74 -17 117.5t-55 64.5q-231 -127 -619 -219z" />
    <glyph glyph-name="uni021D" unicode="&#x21d;" horiz-adv-x="1180" 
d="M246 156v219q258 80 372 169t114 212q0 147 -147 147q-73 0 -115 -36t-41 -98h-305q-1 169 124 266t344 97q216 0 330.5 -90.5t114.5 -259.5q0 -174 -136 -311q156 -83 156 -282q0 -464 -811 -625v225q280 93 392.5 186.5t112.5 230.5q0 77 -33 129q-184 -105 -472 -179z
" />
    <glyph glyph-name="uni021E" unicode="&#x21e;" horiz-adv-x="1528" 
d="M129 0v1489h315v-614h640v614h314v-1489h-314v615h-640v-615h-315zM621 1955l146 -178l146 178h264v-10l-295 -320h-230l-295 320v10h264z" />
    <glyph glyph-name="uni021F" unicode="&#x21f;" horiz-adv-x="1278" 
d="M433 646v-646h-309v1489h301v-569h13q39 101 124 156.5t210 55.5q176 0 281.5 -113t104.5 -308v-711h-310v656q1 103 -51.5 160.5t-147.5 57.5q-97 0 -156 -61t-60 -167zM129 1953l147 -177l146 177h264v-10l-295 -320h-231l-295 320v10h264z" />
    <glyph glyph-name="uni0220" unicode="&#x220;" horiz-adv-x="1375" 
d="M1240 -416h-309v1476q0 205 -234 205q-134 0 -253 -74v-1191h-306v1489h306v-50q137 71 294 71q140 0 253.5 -53t181 -156.5t67.5 -240.5v-1476z" />
    <glyph glyph-name="uni0221" unicode="&#x221;" horiz-adv-x="1470" 
d="M539 -18q-96 0 -178.5 38t-143.5 109t-96 181t-35 247q0 140 36 251t98.5 181t143.5 106.5t174 36.5q67 0 122 -18.5t92.5 -50t62 -64t41.5 -70.5h9v560h310v-1371q47 5 85 5q177 0 277 -77.5t99 -204.5q1 -121 -93.5 -190.5t-272.5 -69.5q-257 0 -354 152l-179 -144
l-136 186l259 208v196h-4q-38 -83 -116 -140t-201 -57zM637 228q110 0 172.5 90t62.5 241t-61.5 238.5t-173.5 87.5t-173.5 -89t-61.5 -237q0 -150 61.5 -240.5t173.5 -90.5zM1171 -85v-36q1 -56 30 -84.5t75 -28.5q41 0 68 23t26 58q1 39 -26.5 64t-80.5 26q-40 1 -92 -22z
" />
    <glyph glyph-name="uni0222" unicode="&#x222;" horiz-adv-x="1373" 
d="M673 957h28q127 0 188 33.5t61 129.5q-1 62 -30 96.5t-92 48.5v245q204 -1 323 -103t120 -287q1 -204 -171 -304q168 -122 168 -350q0 -227 -156 -356.5t-412 -129.5h-22q-257 0 -415 129t-157 354q-1 230 169 353q-169 100 -169 304q-1 186 117.5 287.5t323.5 102.5
v-245q-63 -14 -91.5 -48t-27.5 -97q1 -97 60 -130t185 -33zM700 700h-22q-116 0 -183.5 -62.5t-66.5 -174.5q-1 -111 66.5 -171.5t183.5 -60.5h22q115 0 180 60t66 175q-1 112 -66.5 173t-179.5 61z" />
    <glyph glyph-name="uni0223" unicode="&#x223;" horiz-adv-x="1371" 
d="M700 935q126 0 191 47.5t65 155.5q0 140 -129 184v234q196 -1 314.5 -107.5t118.5 -305.5q0 -228 -171 -334q171 -118 171 -350q0 -228 -155.5 -353.5t-407.5 -125.5h-21q-253 0 -408.5 125t-155.5 353q0 235 170 351q-170 107 -170 334q0 197 118.5 304.5t314.5 108.5
v-234q-125 -42 -125 -184q0 -109 64 -156t189 -47h27zM697 691h-21q-120 0 -188 -62.5t-68 -170.5t68 -170.5t188 -62.5h21q121 0 188.5 62.5t67.5 171.5q0 108 -67.5 170t-188.5 62z" />
    <glyph glyph-name="uni0224" unicode="&#x224;" horiz-adv-x="1365" 
d="M112 1230v259h1140v-186l-750 -1043h366q196 0 302.5 -102t105.5 -282v-132h-259v76q1 82 -31.5 131t-117.5 49h-755v187l751 1043h-752z" />
    <glyph glyph-name="uni0225" unicode="&#x225;" horiz-adv-x="1162" 
d="M837 -271v75q0 196 -151 196h-567v182l534 689h-519v246h903v-180l-533 -691h182q195 0 302 -102.5t107 -282.5v-132h-258z" />
    <glyph glyph-name="uni0226" unicode="&#x226;" horiz-adv-x="1531" 
d="M386 0h-337l514 1489h406l513 -1489h-337l-111 340h-537zM577 585h378l-183 564h-12zM765 1633q-69 0 -118 46.5t-49 111.5q0 64 49 110t118 46t118.5 -46t49.5 -110q0 -65 -49.5 -111.5t-118.5 -46.5z" />
    <glyph glyph-name="uni0227" unicode="&#x227;" horiz-adv-x="1188" 
d="M442 -21q-166 0 -268.5 86t-102.5 247q0 72 23 129t60.5 94t93.5 63t114 39t129 19l88.5 9t66.5 9t53.5 12t33.5 16t22.5 23t5.5 31v5q0 69 -43 106.5t-122 37.5q-80 0 -131.5 -35t-67.5 -93l-286 23q33 155 160 243.5t326 88.5q96 0 179.5 -22.5t150.5 -67t105.5 -119
t38.5 -170.5v-753h-294v155h-8q-43 -82 -125.5 -129t-201.5 -47zM531 193q101 0 167 59t66 147v119q-39 -27 -216 -50q-181 -25 -181 -146q0 -62 45 -95.5t119 -33.5zM608 1261q-69 0 -118 46t-49 111t49 111t118 46t118.5 -46.5t49.5 -110.5q0 -65 -49.5 -111t-118.5 -46z
" />
    <glyph glyph-name="uni0228" unicode="&#x228;" horiz-adv-x="1254" 
d="M129 0v1489h1004v-259h-689v-355h637v-260h-637v-355h692v-260h-436l-11 -57q78 -12 124 -57.5t47 -119.5q1 -110 -100.5 -173.5t-283.5 -63.5l-3 138q195 0 198 91q1 44 -33.5 67.5t-111.5 32.5l31 142h-428z" />
    <glyph glyph-name="uni0229" unicode="&#x229;" horiz-adv-x="1224" 
d="M683 -20l-7 -37q78 -12 124 -57.5t47 -119.5q1 -110 -100.5 -173.5t-283.5 -63.5l-3 138q195 0 198 91q1 44 -33.5 67.5t-111.5 32.5l27 126q-217 27 -339 177.5t-122 391.5q0 260 147.5 419.5t393.5 159.5q112 0 206.5 -36t166 -105t112 -178.5t40.5 -248.5v-85h-760
q0 -125 68 -197.5t185 -72.5q78 0 134.5 33.5t79.5 96.5l287 -19q-31 -147 -151 -238t-305 -102zM385 671h469q-1 100 -64.5 164.5t-164.5 64.5t-168 -66t-72 -163z" />
    <glyph glyph-name="uni022A" unicode="&#x22a;" horiz-adv-x="1601" 
d="M1498 745q0 -179 -53.5 -324.5t-147 -241.5t-221 -147.5t-275.5 -51.5q-149 0 -276.5 52t-221.5 148t-147 241.5t-53 323.5q0 179 53 324.5t147 241.5t221.5 147.5t276.5 51.5q148 0 275.5 -51.5t221 -147.5t147 -241.5t53.5 -324.5zM1179 745q0 233 -102 359.5
t-276 126.5q-175 0 -276.5 -126.5t-101.5 -359.5t101.5 -360t276.5 -127q174 0 276 127t102 360zM1155 2234v-168h-708v168h708zM580 1642q-63 0 -108 44t-45 105t45 104t108 43t107 -43t44 -104t-44 -105t-107 -44zM1025 1642q-63 0 -108 44t-45 105t45 104t108 43t107 -43
t44 -104t-44 -105t-107 -44z" />
    <glyph glyph-name="uni022B" unicode="&#x22b;" horiz-adv-x="1256" 
d="M628 -22q-252 0 -400.5 158t-148.5 418q0 261 148.5 419.5t400.5 158.5q253 0 401.5 -158.5t148.5 -419.5q0 -260 -149 -418t-401 -158zM630 218q111 0 172 93.5t61 244.5t-61 245t-172 94q-114 0 -175.5 -94t-61.5 -245t61.5 -244.5t175.5 -93.5zM983 1862v-168h-709
v168h709zM407 1270q-63 0 -107.5 43.5t-44.5 104.5t44.5 104.5t107.5 43.5t107.5 -43.5t44.5 -104.5t-44.5 -104.5t-107.5 -43.5zM852 1270q-63 0 -107.5 43.5t-44.5 104.5t44.5 104.5t107.5 43.5t107.5 -43.5t44.5 -104.5t-44.5 -104.5t-107.5 -43.5z" />
    <glyph glyph-name="uni022C" unicode="&#x22c;" horiz-adv-x="1601" 
d="M1498 745q0 -179 -53.5 -324.5t-147 -241.5t-221 -147.5t-275.5 -51.5q-149 0 -276.5 52t-221.5 148t-147 241.5t-53 323.5q0 179 53 324.5t147 241.5t221.5 147.5t276.5 51.5q148 0 275.5 -51.5t221 -147.5t147 -241.5t53.5 -324.5zM1179 745q0 233 -102 359.5
t-276 126.5q-175 0 -276.5 -126.5t-101.5 -359.5t101.5 -360t276.5 -127q174 0 276 127t102 360zM1156 2137v-170h-711v170h711zM977 1870l128 -36q-1 -73 -49.5 -127t-121.5 -54q-58 0 -129.5 33.5t-112.5 33.5q-28 0 -47.5 -26t-19.5 -61l-125 35q-1 73 46.5 128.5
t119.5 55.5q45 0 123 -33.5t119 -33.5q27 0 47.5 25t21.5 60z" />
    <glyph glyph-name="uni022D" unicode="&#x22d;" horiz-adv-x="1256" 
d="M628 -22q-252 0 -400.5 158t-148.5 418q0 261 148.5 419.5t400.5 158.5q253 0 401.5 -158.5t148.5 -419.5q0 -260 -149 -418t-401 -158zM630 218q111 0 172 93.5t61 244.5t-61 245t-172 94q-114 0 -175.5 -94t-61.5 -245t61.5 -244.5t175.5 -93.5zM841 1548l178 -10
q0 -112 -67.5 -191t-169.5 -79q-44 0 -84 13.5t-65.5 29.5t-62 29.5t-72.5 13.5q-35 0 -58.5 -25t-24.5 -68l-176 10q0 108 67 188t166 80q56 0 143.5 -42t138.5 -42q37 0 62 24.5t25 68.5zM986 1837v-171h-712v171h712z" />
    <glyph glyph-name="uni022E" unicode="&#x22e;" horiz-adv-x="1601" 
d="M1498 745q0 -179 -53.5 -324.5t-147 -241.5t-221 -147.5t-275.5 -51.5q-149 0 -276.5 52t-221.5 148t-147 241.5t-53 323.5q0 179 53 324.5t147 241.5t221.5 147.5t276.5 51.5q148 0 275.5 -51.5t221 -147.5t147 -241.5t53.5 -324.5zM1179 745q0 233 -102 359.5
t-276 126.5q-175 0 -276.5 -126.5t-101.5 -359.5t101.5 -360t276.5 -127q174 0 276 127t102 360zM800 1633q-69 0 -118 46.5t-49 111.5q0 64 49 110t118 46t118.5 -46t49.5 -110q0 -65 -49.5 -111.5t-118.5 -46.5z" />
    <glyph glyph-name="uni022F" unicode="&#x22f;" horiz-adv-x="1256" 
d="M628 -22q-252 0 -400.5 158t-148.5 418q0 261 148.5 419.5t400.5 158.5q253 0 401.5 -158.5t148.5 -419.5q0 -260 -149 -418t-401 -158zM630 218q111 0 172 93.5t61 244.5t-61 245t-172 94q-114 0 -175.5 -94t-61.5 -245t61.5 -244.5t175.5 -93.5zM628 1261
q-69 0 -118 46t-49 111t49 111t118 46t118.5 -46.5t49.5 -110.5q0 -65 -49.5 -111t-118.5 -46z" />
    <glyph glyph-name="uni0230" unicode="&#x230;" horiz-adv-x="1601" 
d="M1498 745q0 -179 -53.5 -324.5t-147 -241.5t-221 -147.5t-275.5 -51.5q-149 0 -276.5 52t-221.5 148t-147 241.5t-53 323.5q0 179 53 324.5t147 241.5t221.5 147.5t276.5 51.5q148 0 275.5 -51.5t221 -147.5t147 -241.5t53.5 -324.5zM1179 745q0 233 -102 359.5
t-276 126.5q-175 0 -276.5 -126.5t-101.5 -359.5t101.5 -360t276.5 -127q174 0 276 127t102 360zM1155 2234v-168h-708v168h708zM801 1642q-64 0 -109.5 43.5t-45.5 104.5t45 104t110 43q64 0 109.5 -43t45.5 -104t-45.5 -104.5t-109.5 -43.5z" />
    <glyph glyph-name="uni0231" unicode="&#x231;" horiz-adv-x="1256" 
d="M628 -22q-252 0 -400.5 158t-148.5 418q0 261 148.5 419.5t400.5 158.5q253 0 401.5 -158.5t148.5 -419.5q0 -260 -149 -418t-401 -158zM630 218q111 0 172 93.5t61 244.5t-61 245t-172 94q-114 0 -175.5 -94t-61.5 -245t61.5 -244.5t175.5 -93.5zM983 1855v-168h-708
v168h708zM630 1263q-64 0 -110 43.5t-46 104.5t45.5 104.5t110.5 43.5q64 0 109.5 -43.5t45.5 -104.5t-45.5 -104.5t-109.5 -43.5z" />
    <glyph glyph-name="uni0232" unicode="&#x232;" horiz-adv-x="1483" 
d="M42 1489h353l340 -641h14l340 641h352l-543 -962v-527h-313v527zM1096 1862v-168h-708v168h708z" />
    <glyph glyph-name="uni0233" unicode="&#x233;" horiz-adv-x="1200" 
d="M315 -419q-121 0 -195 32l70 231q80 -29 139 -13t88 90l19 47l-401 1149h326l231 -820h12l233 820h328l-434 -1238q-104 -298 -416 -298zM952 1489v-168h-708v168h708z" />
    <glyph glyph-name="uni0234" unicode="&#x234;" horiz-adv-x="863" 
d="M416 1489v-1342q68 17 124 17q132 0 217 -82t86 -200q-1 -121 -92 -211t-237 -90q-106 0 -202.5 50t-151.5 143l-177 -150l-152 175l162 136q66 46 113 74v1480h310zM416 -63v-29q-1 -53 25.5 -84.5t76.5 -31.5q32 0 53.5 25t22.5 59q-1 28 -24.5 51.5t-60.5 23.5
q-46 0 -93 -14z" />
    <glyph glyph-name="uni0235" unicode="&#x235;" horiz-adv-x="1642" 
d="M433 646v-646h-309v1117h295v-197h13q38 99 125.5 155.5t210.5 56.5q176 0 280.5 -113.5t104.5 -307.5v-426q51 3 104 3q138 0 230 -84t93 -214q0 -134 -99.5 -217t-267.5 -84q-124 -1 -215.5 51t-129.5 150l-120 -134l-154 138l162 179q39 44 88 88v495q1 102 -52.5 160
t-146.5 58q-95 0 -153 -61t-59 -167zM1153 8q0 -41 27 -67.5t68 -26.5q38 0 60.5 25t22.5 67q0 41 -26.5 64.5t-68.5 24.5q-29 1 -83 -10v-77z" />
    <glyph glyph-name="uni0236" unicode="&#x236;" horiz-adv-x="1084" 
d="M284 1385h309v-268h211v-233h-211v-340q63 16 124 16q139 0 222.5 -79t83.5 -200q0 -57 -19 -108.5t-58.5 -96.5t-110.5 -72t-164 -27q-111 0 -202 42.5t-140 130.5q-60 -51 -147 -143l-137 172q119 126 239 212v493h-153v233h153v268zM593 325v-43q0 -40 28 -67t71 -27
q35 0 58.5 22.5t23.5 60.5q0 33 -22 54.5t-65 21.5q-40 0 -94 -22z" />
    <glyph glyph-name="uni0237" unicode="&#x237;" horiz-adv-x="557" 
d="M124 1117h309v-1172q0 -364 -423 -364q-16 0 -62 2v242q32 -2 40 -2q73 0 104.5 31t31.5 96v1167z" />
    <glyph glyph-name="uni0238" unicode="&#x238;" horiz-adv-x="1950" 
d="M1831 564v-20q0 -251 -117 -407.5t-313 -156.5q-165 0 -272 117v-97h-278l-14 116q-109 -136 -289 -136q-196 0 -312.5 156.5t-116.5 407.5v20q0 258 115.5 413t313.5 155q169 0 274 -118v475h307v-474q106 117 272 117q198 0 314 -155t116 -413zM426 564v-20
q0 -148 46.5 -233.5t160.5 -85.5q132 0 189 120v422q-56 120 -188 120q-208 0 -208 -323zM1524 544v20q0 323 -208 323q-129 0 -187 -119v-423q58 -120 189 -120q48 0 84.5 16.5t59 44.5t37 69.5t20 87t5.5 101.5z" />
    <glyph glyph-name="uni0239" unicode="&#x239;" horiz-adv-x="1950" 
d="M822 -416v513q-106 -117 -274 -117q-196 0 -312.5 156.5t-116.5 407.5v20q0 258 115.5 413t313.5 155q182 0 291 -138l19 123h248l13 -114q108 129 282 129q198 0 314 -155t116 -413v-20q0 -251 -117 -407.5t-313 -156.5q-165 0 -272 117v-513h-307zM426 564v-20
q0 -148 46.5 -233.5t160.5 -85.5q132 0 189 120v422q-56 120 -188 120q-208 0 -208 -323zM1524 544v20q0 323 -208 323q-129 0 -187 -119v-423q58 -120 189 -120q48 0 84.5 16.5t59 44.5t37 69.5t20 87t5.5 101.5z" />
    <glyph glyph-name="uni023A" unicode="&#x23a;" horiz-adv-x="1531" 
d="M1249 1679l-167 -518l400 -1161h-337l-111 340h-217l-171 -529h-191l171 529h-129l-111 -340h-337l514 1489h406l15 -44l76 234h189zM706 585l124 384l-58 180h-12l-183 -564h129zM925 676l-29 -91h59z" />
    <glyph glyph-name="uni023B" unicode="&#x23b;" horiz-adv-x="1540" 
d="M377 -189l81 249q-166 88 -260.5 264.5t-94.5 420.5q0 179 53 324.5t146.5 241.5t220 147.5t274.5 51.5q68 0 127 -10l58 179h190l-74 -228q144 -64 234.5 -187.5t111.5 -295.5h-319q-19 131 -118 203l-291 -904q42 -9 86 -9q127 0 214 66.5t109 184.5l319 -1
q-13 -104 -62.5 -198t-129.5 -168.5t-198 -118t-257 -43.5q-88 0 -169 18l-60 -187h-191zM553 354l283 876q-10 1 -32 1q-175 0 -278 -128t-103 -358q0 -264 130 -391z" />
    <glyph glyph-name="uni023C" unicode="&#x23c;" horiz-adv-x="1205" 
d="M1028 1489l-141 -413q108 -53 170.5 -149t69.5 -223h-292q-9 60 -40 105l-200 -583q18 -3 37 -3q81 0 135.5 49t67.5 137h292q-11 -195 -145 -313t-354 -118q-55 0 -115 10l-140 -407h-178l158 460q-131 69 -202.5 202.5t-71.5 310.5q0 260 148 419t400 159q44 0 98 -7
l125 364h178zM644 890h-12q-110 0 -174.5 -87.5t-64.5 -243.5q0 -148 56 -235z" />
    <glyph glyph-name="uni023D" unicode="&#x23d;" horiz-adv-x="1162" 
d="M129 0v694h-207v182h207v613h315v-613h204v-182h-204v-434h639v-260h-954z" />
    <glyph glyph-name="uni023E" unicode="&#x23e;" horiz-adv-x="1368" 
d="M313 -189l216 668v751h-456v259h782l61 190h191l-61 -190h250v-259h-335l-121 -376v-854h-276l-61 -189h-190z" />
    <glyph glyph-name="uni023F" unicode="&#x23f;" horiz-adv-x="1154" 
d="M1053 799l-284 -18q-12 57 -60.5 94t-125.5 37q-73 0 -122.5 -31t-48.5 -80q-1 -41 32 -68t109 -44l203 -40q163 -33 242.5 -107.5t80.5 -195.5q-1 -164 -140.5 -266t-357.5 -102q-30 0 -86 4q67 -115 106 -152t87 -37q95 0 188 80l93 -162q-67 -57 -136.5 -93.5
t-154.5 -36.5q-65 0 -120.5 22.5t-100 66t-76 86.5t-67.5 105l-163 280q-64 79 -77 183l305 16q14 -68 66.5 -103.5t136.5 -35.5q80 0 130.5 32t51.5 82q-1 82 -144 111l-193 39q-163 33 -243.5 113t-79.5 206q-1 160 128 254t345 94q209 0 332 -88t144 -245z" />
    <glyph glyph-name="uni0240" unicode="&#x240;" horiz-adv-x="1298" 
d="M504 246h21q73 0 134 -22.5t103 -58.5t77 -80t63.5 -87.5t56 -79.5t60.5 -58.5t70 -22.5q70 0 162 76l102 -202q-138 -130 -291 -130q-65 0 -119 23t-92.5 60t-72.5 81.5t-67.5 89.5t-69 82t-84.5 60t-107 23h-331v182l534 689h-519v246h903v-180z" />
    <glyph glyph-name="uni0241" unicode="&#x241;" horiz-adv-x="1178" 
d="M462 513h108q60 0 101 21.5t62.5 62.5t30.5 89.5t9 114.5v158q0 290 -203 290q-87 0 -134.5 -50.5t-48.5 -130.5h-303q1 198 137 320t344 122q248 0 389 -155t141 -396v-158q0 -191 -92 -331t-260 -191v-279h-320v513h39z" />
    <glyph glyph-name="uni0242" unicode="&#x242;" horiz-adv-x="1180" 
d="M129 689q-1 203 126.5 323t336.5 120q212 0 335.5 -113.5t124.5 -313.5q-1 -153 -78 -250.5t-226 -123.5v-331h-307v490h114q97 0 143 52t47 155q-2 191 -151 191q-160 0 -158 -199h-307z" />
    <glyph glyph-name="uni0243" unicode="&#x243;" horiz-adv-x="1482" 
d="M259 0v364h-215v183h215v942h596q240 0 367.5 -104t127.5 -277q0 -127 -74 -210t-195 -110v-15q134 -6 230.5 -104.5t96.5 -256.5q0 -184 -134.5 -298t-378.5 -114h-636zM574 866h233q99 0 162 51t63 138q0 82 -58 131t-161 49h-239v-369zM574 257h257q128 0 190 49.5
t62 136.5q0 93 -66.5 151.5t-178.5 58.5h-264v-106h196v-183h-196v-107z" />
    <glyph glyph-name="uni0244" unicode="&#x244;" horiz-adv-x="1557" 
d="M1567 847v-181h-166v-144q0 -244 -170 -393.5t-448 -149.5q-279 0 -448 149t-169 394v144h-175v181h175v642h315v-642h605v642h315v-642h166zM1086 666h-605v-117q0 -129 83 -211t219 -82t219.5 82t83.5 211v117z" />
    <glyph glyph-name="uni0245" unicode="&#x245;" horiz-adv-x="1561" 
d="M1113 0l-333 1113l-333 -1113h-352l519 1489h332l520 -1489h-353z" />
    <glyph glyph-name="uni0246" unicode="&#x246;" horiz-adv-x="1254" 
d="M1027 1679l-55 -190h161v-259h-236l-101 -355h285v-260h-360l-103 -355h518v-260h-593l-54 -189h-166l54 189h-248v1489h678l54 190h166zM732 1230h-288v-355h186zM555 615h-111v-355h8z" />
    <glyph glyph-name="uni0247" unicode="&#x247;" horiz-adv-x="1231" 
d="M1028 1489l-144 -418q123 -64 192 -192.5t69 -314.5v-85h-464l-91 -266q30 -4 48 -4q78 0 134.5 33.5t79.5 96.5l287 -19q-33 -157 -167 -249.5t-339 -92.5q-57 0 -120 10l-140 -407h-178l158 459q-132 67 -203 199t-71 314q0 260 147.5 419.5t393.5 159.5q51 0 104 -8
l126 365h178zM569 671l78 229h-7h-8.5h-6.5q-101 0 -168 -66t-72 -163h184zM503 479h-118q0 -111 56 -183zM800 825l-52 -154h106q0 90 -54 154z" />
    <glyph glyph-name="uni0248" unicode="&#x248;" horiz-adv-x="1167" 
d="M726 1489h311v-509h204v-182h-204v-347q-1 -215 -140.5 -343t-367.5 -128q-103 0 -189.5 27.5t-152.5 80.5t-102.5 137.5t-36.5 193.5h313q1 -88 51 -137.5t133 -49.5q87 0 133.5 56t47.5 163v347h-211v182h211v509z" />
    <glyph glyph-name="uni0249" unicode="&#x249;" horiz-adv-x="557" 
d="M124 1117h309v-349h207v-183h-207v-640q0 -364 -423 -364q-16 0 -62 2v242q32 -2 40 -2q73 0 104.5 31t31.5 96v635h-210v183h210v349zM278 1261q-69 0 -118 46t-49 111t49 111t118 46t118.5 -46.5t49.5 -110.5q0 -65 -49.5 -111t-118.5 -46z" />
    <glyph glyph-name="uni024A" unicode="&#x24a;" horiz-adv-x="1698" 
d="M1466 1489v-1557q0 -110 156 -110q26 0 76 6v-237q-72 -10 -160 -10q-84 0 -150 17t-120 55.5t-83 109t-29 169.5v288h-11q-57 -110 -165 -176t-253 -66q-178 0 -321.5 101t-223 276.5t-79.5 391.5q0 213 80.5 388t223.5 275t320 100q145 0 253 -65.5t165 -172.5h14v217
h307zM790 258q184 0 276 129.5t92 358.5q0 225 -94 356t-273 131q-172 0 -270 -131t-98 -356q0 -230 98 -359t269 -129z" />
    <glyph glyph-name="uni024B" unicode="&#x24b;" horiz-adv-x="1403" 
d="M1244 -419q-84 0 -150 17t-120 55.5t-83 109t-29 169.5v247h-10q-38 -83 -116 -140t-201 -57q-96 0 -178.5 38t-143.5 109t-96 181t-35 247q0 140 36 251t99 181t144 106.5t174 36.5q67 0 122 -18t92 -50t61.5 -64.5t41.5 -70.5h13v188h306v-1185q0 -110 156 -110
q27 0 77 6v-237q-70 -10 -160 -10zM633 228q110 0 172.5 90t62.5 241t-61.5 238.5t-173.5 87.5t-173 -89t-61 -237q0 -150 61.5 -240.5t172.5 -90.5z" />
    <glyph glyph-name="uni024C" unicode="&#x24c;" horiz-adv-x="1384" 
d="M163 0v548h-147v237h147v704h588q251 0 392 -131t141 -355q0 -152 -68 -260.5t-195 -163.5l316 -579h-347l-282 528h-230v-528h-315zM478 781h214q268 0 268 222q0 229 -270 229h-212v-451z" />
    <glyph glyph-name="uni024D" unicode="&#x24d;" horiz-adv-x="837" 
d="M124 0v449h-208v182h208v486h300v-195h12q30 102 101.5 156.5t166.5 54.5q53 0 97 -11v-275q-55 17 -130 17q-103 0 -170.5 -65t-67.5 -167v-1h208v-182h-208v-449h-309z" />
    <glyph glyph-name="uni024E" unicode="&#x24e;" horiz-adv-x="1485" 
d="M1468 1179v-162h-293l-277 -490v-527h-313v527l-277 490h-290v162h199l-175 310h353l164 -310h365l165 310h352l-175 -310h202zM645 1017l90 -169h14l90 169h-194z" />
    <glyph glyph-name="uni024F" unicode="&#x24f;" horiz-adv-x="1211" 
d="M1171 753v-156h-178l-252 -718q-104 -298 -416 -298q-121 0 -195 32l70 231q80 -29 139.5 -13t88.5 90l18 47l-220 629h-187v156h133l-127 364h326l102 -364h271l103 364h328l-127 -364h123zM700 597h-182l84 -300h12z" />
    <glyph glyph-name="uni0250" unicode="&#x250;" horiz-adv-x="1188" 
d="M746 1138q166 0 268.5 -86t102.5 -247q0 -72 -23 -129t-60.5 -94t-93.5 -63t-114 -39t-129 -19l-88.5 -9t-66.5 -9t-53.5 -12t-33.5 -16t-22.5 -23t-5.5 -31v-5q0 -69 43.5 -106.5t122.5 -37.5q80 0 131 35t67 93l287 -23q-33 -155 -160.5 -243.5t-326.5 -88.5
q-96 0 -179.5 22.5t-150.5 67t-105.5 119t-38.5 170.5v753h294v-155h9q43 82 125 129t201 47zM657 924q-101 0 -166.5 -59t-65.5 -147v-119q40 27 215 50q181 25 181 146q0 62 -45 95.5t-119 33.5z" />
    <glyph glyph-name="uni0251" unicode="&#x251;" horiz-adv-x="1334" 
d="M564 -23q-211 1 -346.5 163.5t-135.5 418.5q0 252 139.5 412.5t347.5 160.5q132 0 230.5 -70t146.5 -192h5l52 247h235l-122 -558l136 -559h-238l-58 255h-6q-48 -127 -145 -203t-241 -75zM887 559l-1 2q-12 61 -31.5 113.5t-50 102.5t-78.5 79t-107 29
q-109 0 -172.5 -90t-63.5 -234q0 -145 63 -239t163 -94q56 0 104.5 31t82 81t56 105t34.5 111z" />
    <glyph glyph-name="uni0252" unicode="&#x252;" horiz-adv-x="1373" 
d="M1243 577v-33q0 -165 -48.5 -292t-144.5 -200.5t-227 -73.5q-179 0 -282 154l-23 -132h-266v751q0 70 -18.5 101t-56.5 31q-3 0 -9 -1.5t-11 -1.5l-23 227q55 25 129 25q192 0 262 -173q104 173 301 173q195 0 306.5 -151.5t110.5 -403.5zM935 544v33q0 68 -9.5 120.5
t-31.5 97.5t-63.5 69t-100.5 24q-119 0 -173 -91q2 -30 2 -45v-434q56 -95 172 -95q72 0 119 44t66.5 114t18.5 163z" />
    <glyph glyph-name="uni0253" unicode="&#x253;" horiz-adv-x="1295" 
d="M760 -18q-123 0 -201 57t-116 140h-14v-179h-305v1159q0 85 23 149t59.5 102t89.5 61t105 31t115 8q80 0 158 -10v-237q-50 6 -74 6q-71 0 -119 -25t-48 -85v-230h10q17 38 41.5 70.5t62 64t92.5 50t122 18.5q93 0 174 -36.5t143.5 -106.5t98.5 -181t36 -251
q0 -137 -35 -247t-96 -181t-143.5 -109t-178.5 -38zM662 228q112 0 173.5 90.5t61.5 240.5q0 148 -61.5 237t-173.5 89t-173.5 -87.5t-61.5 -238.5t62.5 -241t172.5 -90z" />
    <glyph glyph-name="uni0254" unicode="&#x254;" horiz-adv-x="1176" 
d="M98 380h287q2 -72 52.5 -113.5t134.5 -41.5q50 0 86.5 17.5t58 45t34.5 69.5t17 84.5t4 95.5v32q0 65 -7.5 115t-27.5 99.5t-62 77t-105 27.5q-90 0 -136.5 -56.5t-48.5 -156.5h-287q3 217 129.5 337t337.5 120q125 0 223.5 -42.5t161.5 -118.5t96 -178t33 -224v-32
q1 -161 -56.5 -285.5t-175 -198t-281.5 -73.5q-202 0 -333.5 112t-134.5 288z" />
    <glyph glyph-name="uni0255" unicode="&#x255;" horiz-adv-x="1209" 
d="M636 -22q-138 0 -248 49q-16 -22 -46 -65.5t-42 -60.5l-197 135q59 84 98 136q-119 153 -119 385q0 258 148.5 416.5t400.5 158.5q218 0 353.5 -117t145.5 -311h-291q-13 85 -66 135.5t-137 50.5q-109 0 -174 -87.5t-65 -243.5q0 -79 17 -142q182 167 392 167
q146 0 231.5 -68.5t86.5 -190.5q1 -150 -128 -248.5t-360 -98.5zM553 233q40 -16 83 -16q99 0 155 27.5t58 71.5q1 29 -18.5 46t-46.5 17q-96 0 -231 -146z" />
    <glyph glyph-name="uni0256" unicode="&#x256;" horiz-adv-x="1295" 
d="M1244 -419q-84 0 -149.5 17t-119.5 55.5t-83 109t-29 169.5v247h-11q-38 -83 -116 -140t-201 -57q-96 0 -178.5 38t-143.5 109t-96 181t-35 247q0 140 36 251t99 181t144 106.5t174 36.5q67 0 122 -18t92 -50t61.5 -64.5t41.5 -70.5h10v560h309v-1557q0 -110 156 -110
q27 0 77 6v-237q-70 -10 -160 -10zM633 228q110 0 172.5 90t62.5 241t-61.5 238.5t-173.5 87.5t-173 -89t-61 -237q0 -150 61.5 -240.5t172.5 -90.5z" />
    <glyph glyph-name="uni0257" unicode="&#x257;" horiz-adv-x="1343" 
d="M535 -18q-96 0 -178.5 38t-143.5 109t-96 181t-35 247q0 140 36 251t99 181t144 106.5t174 36.5q67 0 122 -18t92 -50t61.5 -64.5t41.5 -70.5h10v224q0 86 25 151t64.5 103.5t94.5 62.5t107 32.5t111 8.5q87 0 158 -15v-236q-37 8 -74 8q-28 0 -46 -1t-45.5 -7t-44 -17.5
t-29 -34.5t-12.5 -55v-1153h-306v179h-13q-39 -84 -116 -140.5t-201 -56.5zM633 228q110 0 172.5 90t62.5 241t-61.5 238.5t-173.5 87.5t-173 -89t-61 -237q0 -150 61.5 -240.5t172.5 -90.5z" />
    <glyph glyph-name="uni0258" unicode="&#x258;" horiz-adv-x="1175" 
d="M543 -20q-146 0 -260.5 54t-179.5 141l151 166q97 -116 261 -116q115 0 185.5 61t85.5 172h-706v129q0 256 130.5 400.5t357.5 144.5q167 0 288.5 -76.5t181 -204.5t59.5 -292v-40q0 -152 -65.5 -273.5t-193 -193.5t-295.5 -72zM783 660q-32 228 -211 228
q-87 0 -138.5 -54.5t-55.5 -159.5v-14h405z" />
    <glyph glyph-name="uni0259" unicode="&#x259;" horiz-adv-x="1224" 
d="M591 1139q257 0 405.5 -154.5t148.5 -420.5q0 -260 -147.5 -419.5t-393.5 -159.5q-112 0 -206.5 36t-166 105t-112 178.5t-40.5 248.5v85h760v1q0 125 -68 197t-185 72q-78 0 -134.5 -33.5t-79.5 -96.5l-287 19q33 157 167 249.5t339 92.5zM839 446h-469
q1 -100 64.5 -164.5t164.5 -64.5t168 66t72 163z" />
    <glyph glyph-name="uni025A" unicode="&#x25a;" horiz-adv-x="1720" 
d="M575 1103q188 0 321.5 -86t192.5 -229l263 57q29 -177 36 -204q23 -91 72 -112q20 -8 47 -8q1 0 61 3l39 -189q-81 -43 -163 -43q-57 0 -100.5 16.5t-71 42t-49 68.5t-33 83t-23.5 98l-37 -9v-14v-39q-1 -245 -142 -401.5t-379 -156.5q-236 0 -365 143.5t-128 387.5v58
l677 155q-34 64 -95 99.5t-142 35.5q-175 0 -269 -118l-147 168q57 80 170 137t265 57zM826 524l-411 -90v-20q-1 -86 46.5 -137.5t148.5 -51.5q58 0 101 25.5t66.5 70t35 94.5t13.5 109z" />
    <glyph glyph-name="uni025B" unicode="&#x25b;" horiz-adv-x="1168" 
d="M743 585v-118h-158q-88 0 -149 -34t-62 -99q1 -54 56.5 -90.5t152.5 -36.5q197 0 214 115h295q-4 -109 -74.5 -188t-178.5 -116.5t-240 -37.5q-224 0 -371.5 89t-148.5 235q1 95 63 163.5t187 98.5q-113 32 -172 98t-60 146q1 152 139 237t362 85q202 0 336.5 -90
t141.5 -243h-299q-7 53 -58 80t-136 27q-89 0 -138.5 -35t-50.5 -86q1 -51 51.5 -80.5t139.5 -29.5h158v-90z" />
    <glyph glyph-name="uni025C" unicode="&#x25c;" horiz-adv-x="1202" 
d="M421 543v132h159q89 0 139 29.5t51 80.5q-1 51 -50 86t-138 35q-85 0 -136 -27t-58 -80h-299q7 153 141 243t336 90q224 0 362 -85t139 -237q-1 -80 -59.5 -146t-171.5 -98q125 -30 187 -98.5t63 -163.5q-1 -146 -149 -235t-372 -89q-132 0 -240.5 37.5t-179 117
t-74.5 187.5h296q17 -115 213 -115q97 0 153 36.5t57 90.5q-1 65 -61.5 99t-148.5 34h-159v76z" />
    <glyph glyph-name="uni025D" unicode="&#x25d;" horiz-adv-x="1664" 
d="M425 543v132h158q89 0 139.5 29.5t51.5 80.5q-1 51 -50.5 86t-138.5 35q-85 0 -136 -27t-58 -80h-299q7 153 141 243t336 90q183 0 312 -58t171 -165l242 51q3 -19 8 -54q7 -47 10.5 -69t10.5 -57t13.5 -51t17 -37.5t23 -30.5t30.5 -16t40 -7h13q31 0 46 2l40 -191
q-71 -38 -161 -38q-57 0 -100.5 16.5t-71 41t-49.5 67.5t-33.5 81.5t-25.5 97.5l-67 -16q-59 -94 -199 -133q125 -30 187 -98.5t63 -163.5q-1 -146 -148.5 -235t-371.5 -89q-132 0 -240.5 37.5t-179 117t-74.5 187.5h296q17 -115 213 -115q97 0 152.5 36.5t56.5 90.5
q-1 65 -61.5 99t-148.5 34h-158v76z" />
    <glyph glyph-name="uni025E" unicode="&#x25e;" horiz-adv-x="1197" 
d="M598 -20q-106 0 -198 37t-163.5 108t-112.5 186t-41 261q0 139 39.5 247.5t110 176t163.5 102t203 34.5q216 0 345 -84.5t130 -237.5q-1 -81 -54 -147t-160 -97q120 -29 177 -97.5t58 -164.5q-1 -147 -140.5 -235.5t-356.5 -88.5zM551 585v86h60q82 0 123.5 31t42.5 83
q-1 52 -40.5 86.5t-118.5 34.5q-110 0 -176 -78.5t-65 -255.5q-1 -364 238 -364q87 0 133.5 36t47.5 90q-1 66 -50.5 101.5t-134.5 35.5h-60v114z" />
    <glyph glyph-name="uni025F" unicode="&#x25f;" horiz-adv-x="557" 
d="M124 1117h309v-349h207v-183h-207v-640q0 -364 -423 -364q-16 0 -62 2v242q32 -2 40 -2q73 0 104.5 31t31.5 96v635h-210v183h210v349z" />
    <glyph glyph-name="uni0260" unicode="&#x260;" horiz-adv-x="1330" 
d="M631 -442q-217 0 -349.5 86.5t-161.5 224.5l287 39q21 -56 78 -92t153 -36q108 0 170.5 51.5t62.5 161.5v205h-14q-35 -78 -114.5 -130t-203.5 -52q-96 0 -177.5 33.5t-143.5 99t-97 171t-35 241.5q0 138 36 248.5t98.5 180t143.5 106t174 36.5q67 0 122.5 -18.5t93 -50
t62 -64t41.5 -70.5h12v230q0 351 388 351q80 0 160 -10v-237q-69 6 -76 6q-164 0 -164 -110v-1170q0 -208 -149.5 -319.5t-396.5 -111.5zM637 249q112 0 173.5 82.5t61.5 230.5q0 149 -61.5 236t-173.5 87t-173.5 -88.5t-61.5 -234.5t61 -229.5t174 -83.5z" />
    <glyph glyph-name="uni0261" unicode="&#x261;" horiz-adv-x="1296" 
d="M627 -442q-217 0 -349.5 86.5t-161.5 224.5l287 39q21 -56 78 -92t153 -36q108 0 170.5 51.5t62.5 161.5v205h-13q-35 -78 -115 -130t-204 -52q-96 0 -177.5 33.5t-143.5 99t-97 171t-35 241.5q0 138 36 248.5t98.5 180t144 106t174.5 36.5q67 0 122.5 -18.5t93 -50
t62 -64t41.5 -70.5h11v188h308v-1128q0 -208 -149.5 -319.5t-396.5 -111.5zM633 249q112 0 173.5 82.5t61.5 230.5q0 149 -61.5 236t-173.5 87t-173 -88.5t-61 -234.5q0 -147 60.5 -230t173.5 -83z" />
    <glyph glyph-name="uni0262" unicode="&#x262;" horiz-adv-x="1375" 
d="M1217 588v-426q-31 -35 -67 -62t-95.5 -56.5t-147 -46t-196.5 -16.5q-245 0 -400.5 134.5t-155.5 347.5v162q0 212 151 345t388 133q475 0 515 -384h-298q-14 76 -66 109.5t-151 33.5q-108 0 -173 -65.5t-65 -169.5v-164q0 -105 68.5 -171.5t186.5 -66.5q154 0 224 41
v117h-229v205h511z" />
    <glyph glyph-name="uni0263" unicode="&#x263;" horiz-adv-x="1354" 
d="M679 -442q-173 0 -270.5 69.5t-98.5 204.5q-2 113 73 248l141 257l-428 780h316l267 -496l271 496h314l-427 -791l127 -237q74 -136 76 -258q1 -134 -94 -203.5t-267 -69.5zM683 36q-63 -129 -63 -197q0 -67 59 -67q58 0 58 67q0 76 -54 197z" />
    <glyph glyph-name="uni0264" unicode="&#x264;" horiz-adv-x="1404" 
d="M205 799l-148 180q130 153 298 153q98 0 178 -57.5t169 -185.5q90 127 170.5 185t179.5 58q93 0 164.5 -41.5t133.5 -111.5l-151 -180q-60 64 -111 64q-49 0 -90.5 -45.5t-132.5 -186.5q1 -3 4 -8t4 -7q72 -123 111 -214.5t39 -174.5q0 -120 -86.5 -183.5t-233.5 -63.5
q-148 0 -235.5 64t-87.5 183q0 83 40 175t118 225q0 1 2 4t3 5q-88 134 -134 180.5t-93 46.5q-53 0 -111 -64zM701 372q-49 -90 -48 -129q-1 -18 11 -32.5t39 -14.5q44 0 46 47q0 38 -48 129z" />
    <glyph glyph-name="uni0265" unicode="&#x265;" horiz-adv-x="1278" 
d="M845 471v646h310v-1489h-301v569h-13q-39 -101 -124 -156.5t-210 -55.5q-176 0 -281.5 113t-104.5 308v711h310v-656q-1 -103 51.5 -160.5t147.5 -57.5q97 0 155.5 60.5t59.5 167.5z" />
    <glyph glyph-name="uni0266" unicode="&#x266;" horiz-adv-x="1273" 
d="M433 646v-646h-309v1161q0 83 21.5 146.5t56.5 101t85.5 61t101.5 32t113 8.5q82 0 158 -10v-237q-50 6 -76 6q-165 0 -165 -108v-241h13q38 99 125.5 155.5t210.5 56.5q176 0 280.5 -113.5t104.5 -307.5v-711h-309v656q1 102 -52.5 160t-146.5 58q-95 0 -153 -61
t-59 -167z" />
    <glyph glyph-name="uni0267" unicode="&#x267;" horiz-adv-x="1273" 
d="M433 646v-646h-309v1161q0 83 21.5 146.5t56.5 101t85.5 61t101.5 32t113 8.5q82 0 158 -10v-237q-50 6 -76 6q-165 0 -165 -108v-241h13q38 99 125.5 155.5t210.5 56.5q176 0 280.5 -113.5t104.5 -307.5v-779q0 -351 -384 -351q-83 0 -157 10v237q48 -6 76 -6
q156 0 156 110v724q1 102 -52.5 160t-146.5 58q-95 0 -153 -61t-59 -167z" />
    <glyph glyph-name="uni0268" unicode="&#x268;" horiz-adv-x="557" 
d="M124 0v518h-211v182h211v417h309v-417h206v-182h-206v-518h-309zM279 1261q-69 0 -118 46t-49 111t49 111t118 46t118.5 -46.5t49.5 -110.5q0 -65 -49.5 -111t-118.5 -46z" />
    <glyph glyph-name="uni03B9" unicode="&#x3b9;" horiz-adv-x="657" 
d="M144 1117h301l-4 -767q1 -64 29.5 -88t88.5 -24q19 0 88 6v-228q-87 -29 -184 -29q-318 0 -319 326v804z" />
    <glyph glyph-name="uni03B9" unicode="&#x269;" horiz-adv-x="657" 
d="M144 1117h301l-4 -767q1 -64 29.5 -88t88.5 -24q19 0 88 6v-228q-87 -29 -184 -29q-318 0 -319 326v804z" />
    <glyph glyph-name="uni026A" unicode="&#x26a;" horiz-adv-x="960" 
d="M788 1082v-243h-157v-593h157v-246h-615v246h153v593h-153v243h615z" />
    <glyph glyph-name="uni026B" unicode="&#x26b;" horiz-adv-x="680" 
d="M500 1489v-680q42 4 64.5 34t23.5 78l195 -5q-1 -134 -78 -210.5t-194 -77.5h-11v-628h-310v737q-39 -5 -61.5 -34t-22.5 -76l-198 2q0 134 77 210.5t195 77.5h10v572h310z" />
    <glyph glyph-name="uni026C" unicode="&#x26c;" horiz-adv-x="1031" 
d="M1008 551h-217v-551h-310v551h-113q-159 0 -246.5 75.5t-87.5 201.5q0 130 95 217t271 87q44 0 81 -6v363h310v-730h217v-208zM481 800q0 112 -85 112q-41 0 -69 -23t-27 -53q-1 -31 25.5 -54t71.5 -23h84v41z" />
    <glyph glyph-name="uni026D" unicode="&#x26d;" horiz-adv-x="665" 
d="M433 1489v-1557q0 -110 156 -110q26 0 76 6v-237q-76 -10 -157 -10q-85 0 -151 17t-120 55.5t-83.5 109t-29.5 169.5v1557h309z" />
    <glyph glyph-name="uni026E" unicode="&#x26e;" horiz-adv-x="1455" 
d="M129 1489h293v-372h915l3 -211l-411 -420v-12q225 -26 339 -147.5t112 -295.5q-1 -213 -160.5 -343.5t-412.5 -130.5q-266 0 -427 147l227 191q70 -78 203 -78q110 0 176.5 63.5t66.5 175.5q0 108 -67.5 169.5t-189.5 61.5h-179v219l337 347v12h-532v-816h-293v1440z" />
    <glyph glyph-name="uni026F" unicode="&#x26f;" horiz-adv-x="1867" 
d="M1744 1117v-1117h-295v197h-13q-35 -100 -117 -156t-195 -56q-114 0 -195 57.5t-108 154.5h-12q-35 -97 -124.5 -154.5t-211.5 -57.5q-159 0 -255.5 101t-96.5 280v751h309v-690q0 -90 48 -138t125 -48q84 0 131.5 53t47.5 141v682h300v-697q0 -82 46.5 -130.5
t123.5 -48.5q78 0 130 57t52 149v670h310z" />
    <glyph glyph-name="uni0270" unicode="&#x270;" horiz-adv-x="1867" 
d="M1449 -419v616h-13q-35 -100 -117 -156t-195 -56q-114 0 -195 57.5t-108 154.5h-12q-35 -97 -124.5 -154.5t-211.5 -57.5q-159 0 -255.5 101t-96.5 280v751h309v-690q0 -90 48 -138t125 -48q84 0 131.5 53t47.5 141v682h300v-697q0 -82 46.5 -130.5t123.5 -48.5
q78 0 130 57t52 149v670h310v-1536h-295z" />
    <glyph glyph-name="uni0271" unicode="&#x271;" horiz-adv-x="1867" 
d="M124 0v1117h295v-197h13q36 100 117.5 156t193.5 56q114 0 195.5 -57.5t108.5 -154.5h11q35 97 125 154.5t212 57.5q159 0 255.5 -101t96.5 -280v-819q0 -351 -383 -351q-80 0 -158 10v237q50 -6 75 -6q157 0 157 110v758q0 90 -48 138t-125 48q-84 0 -131.5 -53
t-47.5 -141v-682h-301v697q0 82 -46.5 130.5t-123.5 48.5q-79 0 -130.5 -56.5t-51.5 -148.5v-671h-309z" />
    <glyph glyph-name="uni0272" unicode="&#x272;" horiz-adv-x="1310" 
d="M161 0h-1v1117h295v-197h13q38 99 125.5 155.5t210.5 56.5q176 0 281 -113.5t105 -307.5v-711h-310v656q1 102 -52.5 160t-146.5 58q-95 0 -152.5 -60.5t-58.5 -167.5v-708q0 -181 -107.5 -276t-291.5 -95q-96 0 -157 13l21 251q44 -11 93 -11q133 0 133 118v62z" />
    <glyph glyph-name="uni0273" unicode="&#x273;" horiz-adv-x="1322" 
d="M433 646v-646h-309v1117h295v-197h13q38 99 125.5 155.5t210.5 56.5q176 0 280.5 -113.5t104.5 -307.5v-779q0 -110 156 -110q7 0 76 6v-237q-80 -10 -160 -10q-84 0 -149.5 17t-119.5 55.5t-83 109t-29 169.5v724q1 102 -52.5 160t-146.5 58q-95 0 -153 -61t-59 -167z
" />
    <glyph glyph-name="uni0274" unicode="&#x274;" horiz-adv-x="1275" 
d="M1152 1117v-1117h-289l-427 596h-11v-596h-301v1117h256l453 -627h13v627h306z" />
    <glyph glyph-name="uni0275" unicode="&#x275;" horiz-adv-x="1256" 
d="M628 -22q-252 0 -400.5 158t-148.5 418q0 261 148.5 419.5t400.5 158.5q253 0 401.5 -158.5t148.5 -419.5q0 -260 -149 -418t-401 -158zM630 218q94 0 152 67t75 182h-458q17 -115 76 -182t155 -67zM400 650h457q-18 113 -76.5 179t-150.5 66q-95 0 -153.5 -66
t-76.5 -179z" />
    <glyph glyph-name="uni0276" unicode="&#x276;" horiz-adv-x="1792" 
d="M1671 243v-243h-628q-110 0 -224 -10t-166 -10q-166 0 -288 72.5t-183 195.5t-61 281v24q0 242 141.5 396t387.5 154q54 0 170 -10.5t223 -10.5h628v-243h-527v-174h437v-244h-437v-178h527zM836 236v611q-170 12 -186 12q-59 0 -103 -24.5t-69 -68t-37 -97t-12 -116.5
v-24q-1 -138 52.5 -221t171.5 -83q35 0 101 5t82 6z" />
    <glyph glyph-name="uni0277" unicode="&#x277;" horiz-adv-x="1917" 
d="M959 1132q368 0 577 -176t208 -472q0 -79 -15 -150.5t-48 -137t-82.5 -113t-123.5 -75.5t-166 -28q-248 0 -350 211q-102 -211 -350 -211q-92 0 -166 28t-123 75.5t-82 113t-48 137t-15 150.5q0 297 208.5 472.5t575.5 175.5zM959 888q-128 0 -223 -32t-150 -89.5
t-81 -128t-26 -154.5q1 -119 39 -189t117 -70q74 0 118.5 65t44.5 206v191h323v-191q0 -141 44.5 -206t118.5 -65q79 0 117 69.5t39 189.5q0 84 -26 154.5t-81 128t-150.5 89.5t-223.5 32z" />
    <glyph glyph-name="uni0278" unicode="&#x278;" horiz-adv-x="1528" 
d="M153 544v23q0 246 121 383.5t339 170.5v368h303v-368q219 -33 339.5 -170.5t120.5 -383.5v-23q0 -246 -120.5 -383t-339.5 -170v-387h-303v387q-102 16 -184 55.5t-145 105t-97 165t-34 227.5zM916 860v-608q153 66 153 292v23q0 226 -153 293zM460 567v-23
q0 -226 153 -292v608q-154 -70 -153 -293z" />
    <glyph glyph-name="uni0279" unicode="&#x279;" horiz-adv-x="837" 
d="M713 1117v-1117h-300v195h-12q-30 -102 -101.5 -156.5t-166.5 -54.5q-53 0 -97 11v275q55 -17 131 -17q103 0 170 65t67 167v632h309z" />
    <glyph glyph-name="uni027A" unicode="&#x27a;" horiz-adv-x="790" 
d="M77 -7l2 293q70 -9 111 -9q168 0 219 109v1150h306v-1536h-289l-9 130q-87 -150 -248 -150q-60 0 -92 13z" />
    <glyph glyph-name="uni027B" unicode="&#x27b;" horiz-adv-x="939" 
d="M803 -436q-86 0 -152.5 16t-122 53.5t-85.5 107.5t-30 170v284h-12q-30 -102 -101.5 -156.5t-166.5 -54.5q-53 0 -97 11v275q55 -17 131 -17q103 0 170 65t67 167v632h309v-1192q0 -150 172 -150q44 0 78 5v-203q-68 -13 -160 -13z" />
    <glyph glyph-name="uni027C" unicode="&#x27c;" horiz-adv-x="864" 
d="M124 -419v1536h300v-195h12q30 102 101 156.5t167 54.5q86 0 153 -41l-93 -256q-52 27 -106 27q-95 0 -159.5 -65t-65.5 -166v-1051h-309z" />
    <glyph glyph-name="uni027D" unicode="&#x27d;" horiz-adv-x="864" 
d="M508 -419q-85 0 -151 17t-120 55.5t-83.5 109t-29.5 169.5v1185h300v-195h12q30 102 101 156.5t167 54.5q86 0 153 -41l-93 -256q-52 27 -106 27q-95 0 -159.5 -65t-65.5 -166v-700q0 -110 156 -110q26 0 76 6v-237q-76 -10 -157 -10z" />
    <glyph glyph-name="uni027E" unicode="&#x27e;" horiz-adv-x="772" 
d="M417 0h-300v784q0 348 394 348q89 0 162 -15v-205q-50 6 -76 6q-75 0 -127.5 -31.5t-52.5 -105.5v-781z" />
    <glyph glyph-name="uni027F" unicode="&#x27f;" horiz-adv-x="770" 
d="M654 -417h-301v1198q0 39 -15.5 67t-42.5 42.5t-56.5 21t-62.5 6.5q-34 0 -76 -6v205q73 15 157 15q397 0 397 -348v-1201z" />
    <glyph glyph-name="uni0280" unicode="&#x280;" horiz-adv-x="1378" 
d="M188 1082h493q218 0 347.5 -102.5t129.5 -263.5q0 -96 -53.5 -173t-150.5 -122l239 -421h-310l-209 368h-182v-368h-304v1082zM492 577h193q81 0 125 38t44 92q0 55 -44.5 93.5t-128.5 38.5h-189v-262z" />
    <glyph glyph-name="uni0281" unicode="&#x281;" horiz-adv-x="1378" 
d="M681 0h-493v1082h304v-368h182l209 368h310l-240 -420q98 -45 151.5 -122t53.5 -173q0 -162 -129.5 -264.5t-347.5 -102.5zM492 505v-262h189q81 0 127 41t46 93q0 50 -44.5 89t-124.5 39h-193z" />
    <glyph glyph-name="uni0282" unicode="&#x282;" horiz-adv-x="1150" 
d="M74 324l305 16q14 -68 66.5 -103.5t136.5 -35.5q80 0 130.5 32t51.5 82q-1 82 -144 111l-193 39q-163 33 -243.5 113t-79.5 206q-1 160 128 254t345 94q209 0 332 -88t144 -245l-284 -18q-12 57 -60.5 94t-125.5 37q-73 0 -122.5 -31t-48.5 -80q-1 -41 32 -68t109 -44
l203 -40q163 -33 242.5 -107.5t80.5 -195.5q-1 -164 -140.5 -266t-357.5 -102q-158 0 -273 49v-71q0 -76 44 -112t119 -36q48 0 80 6v-205q-57 -13 -131 -13q-158 0 -252 91.5t-94 252.5v384z" />
    <glyph glyph-name="uni0283" unicode="&#x283;" horiz-adv-x="985" 
d="M235 -442q-73 0 -153 19l2 234q35 -9 90 -9q78 0 121 36.5t43 101.5v1234q0 184 110.5 283t302.5 99q70 0 154 -19l-3 -234q-37 9 -90 9q-78 0 -121.5 -35.5t-43.5 -102.5v-1234q0 -183 -110.5 -282.5t-301.5 -99.5z" />
    <glyph glyph-name="uni0284" unicode="&#x284;" horiz-adv-x="985" 
d="M235 -442q-73 0 -153 19l2 234q35 -9 90 -9q78 0 121 36.5t43 101.5v83h-209v183h209v968q0 184 110.5 283t302.5 99q70 0 154 -19l-3 -234q-37 9 -90 9q-78 0 -121.5 -35.5t-43.5 -102.5v-968h208v-183h-208v-83q0 -183 -110.5 -282.5t-301.5 -99.5z" />
    <glyph glyph-name="uni0285" unicode="&#x285;" horiz-adv-x="987" 
d="M342 0v749q0 66 -44.5 102t-123.5 36q-56 0 -90 -10l-2 236q78 19 153 19q193 0 302.5 -100t109.5 -283v-809q0 -67 43.5 -102.5t121.5 -35.5q52 0 93 9l1 -234q-87 -19 -155 -19q-192 0 -300.5 99t-108.5 283v60z" />
    <glyph glyph-name="uni0286" unicode="&#x286;" horiz-adv-x="1168" 
d="M825 246v-250l274 -220l-139 -185l-179 150q-87 -174 -352 -174q-178 0 -273.5 76.5t-95.5 205.5q0 127 90 201t251 74q62 0 123 -8v1058q0 184 109 283t301 99q72 0 153 -19l-3 -234q-34 9 -91 9q-79 0 -123.5 -35.5t-44.5 -102.5v-928zM524 -97q-45 14 -88 14
q-50 0 -79 -20t-29 -55q0 -40 27 -60t68 -20q101 0 101 112v29z" />
    <glyph glyph-name="uni0287" unicode="&#x287;" horiz-adv-x="795" 
d="M598 -268h-310v268h-210v233h210v541q0 61 -27 85t-78 24q-27 0 -77 -10l-49 230q80 26 168 29q173 7 273.5 -74.5t99.5 -242.5v-582h153v-233h-153v-268z" />
    <glyph glyph-name="uni0288" unicode="&#x288;" horiz-adv-x="800" 
d="M718 1117v-233h-210v-952q0 -61 26.5 -85t77.5 -24q27 0 77 10l49 -230q-69 -25 -168 -29q-172 -7 -272.5 74.5t-99.5 242.5v993h-153v233h153v268h310v-268h210z" />
    <glyph glyph-name="uni0289" unicode="&#x289;" horiz-adv-x="1374" 
d="M1375 732v-179h-174v-553h-298v203h-11q-38 -101 -127 -159.5t-212 -58.5q-170 0 -273.5 113.5t-104.5 307.5v147h-175v179h175v385h309v-385h407v385h310v-385h174zM891 476v77h-407v-92q1 -99 53.5 -156.5t140.5 -57.5q89 0 151.5 61t61.5 168z" />
    <glyph glyph-name="uni028A" unicode="&#x28a;" horiz-adv-x="1373" 
d="M688 223q60 0 106.5 13t74.5 34t46 50.5t24.5 58.5t6.5 62q0 66 -27 145t-54 161.5t-27 155.5q0 53 19 93t62.5 71.5t121 48t188.5 16.5v-232q-35 0 -58 -17.5t-23 -50.5q0 -50 26 -120t52.5 -160.5t26.5 -189.5q0 -52 -14.5 -101t-54 -101.5t-100.5 -91t-163.5 -63.5
t-232.5 -25q-131 0 -233 25t-163 63.5t-100 91t-53.5 101.5t-14.5 101q0 78 16 152.5t35 121.5t35 101t16 95q0 33 -23.5 50.5t-58.5 17.5v232q113 0 192 -16.5t122.5 -48t62.5 -71.5t19 -93q0 -73 -28 -155.5t-56 -161.5t-28 -145q0 -41 12 -77t39.5 -69t81 -52.5
t127.5 -19.5z" />
    <glyph glyph-name="uni028B" unicode="&#x28b;" horiz-adv-x="1178" 
d="M588 225q179 0 179 200v315q0 140 -115 140q-24 0 -66 -7l-32 215q137 44 239 44q280 0 280 -339v-368q0 -228 -129.5 -336.5t-355.5 -108.5q-225 0 -354.5 109t-128.5 336v692h307v-692q-1 -105 43.5 -152.5t132.5 -47.5z" />
    <glyph glyph-name="uni028C" unicode="&#x28c;" horiz-adv-x="1200" 
d="M35 0l390 1117h350l390 -1117h-327l-232 799h-12l-231 -799h-328z" />
    <glyph glyph-name="uni028D" unicode="&#x28d;" horiz-adv-x="1741" 
d="M1397 1117l304 -1117h-313l-173 751h-11l-180 -751h-308l-183 746h-9l-171 -746h-312l303 1117h328l192 -702h14l192 702h327z" />
    <glyph glyph-name="uni028E" unicode="&#x28e;" horiz-adv-x="1200" 
d="M885 1536q121 0 195 -32l-70 -231q-80 29 -139 13t-88 -90l-19 -47l401 -1149h-326l-231 820h-12l-233 -820h-328l434 1238q104 298 416 298z" />
    <glyph glyph-name="uni028F" unicode="&#x28f;" horiz-adv-x="1168" 
d="M356 1082l230 -477l230 477h329l-413 -742v-340h-302v355l-406 727h332z" />
    <glyph glyph-name="uni0290" unicode="&#x290;" horiz-adv-x="1307" 
d="M839 0h-721v185l547 677v8h-528v247h901v-201l-514 -661v-8h533v-336q0 -51 27.5 -82.5t63 -41.5t81.5 -10q39 0 79 6v-206q-57 -13 -128 -13q-158 0 -249.5 91t-91.5 256v89z" />
    <glyph glyph-name="uni0291" unicode="&#x291;" horiz-adv-x="1455" 
d="M1002 0h-237l-186 -255l-194 118l96 137h-358v182l534 689h-520v246h903v-180l-532 -691h148q148 201 254.5 288.5t222.5 87.5t198.5 -76.5t83.5 -195.5q0 -62 -25 -122.5t-73.5 -112t-130 -83.5t-184.5 -32zM943 246h77q146 0 148 89q-1 21 -20 34.5t-44 13.5
q-35 0 -69.5 -30t-91.5 -107z" />
    <glyph glyph-name="uni0292" unicode="&#x292;" horiz-adv-x="1343" 
d="M97 49h318q6 -83 76.5 -132.5t173.5 -49.5q109 0 177 56t68 150q0 96 -72.5 155t-207.5 59h-161v219l330 343v11h-627v257h1014v-227l-400 -404v-12q114 -11 202.5 -50.5t142 -98t80.5 -127.5t27 -146q0 -130 -75 -232t-205.5 -157.5t-293.5 -55.5q-246 0 -403 122
t-164 320z" />
    <glyph glyph-name="uni0293" unicode="&#x293;" horiz-adv-x="1397" 
d="M179 1117h1005l1 -211l-410 -420v-12q187 -21 294.5 -139.5t107.5 -294.5q0 -95 -38 -182l152 -113l-129 -160l-149 112q-165 -130 -430 -130q-86 0 -168 20t-152.5 58t-113.5 103t-43 146q-1 131 101.5 207.5t276.5 76.5q221 0 413 -140q3 21 3 40q0 91 -71 150t-186 59
h-180v219l338 347v12h-622v252zM794 -139l-1 2q-149 113 -298 113q-56 0 -87.5 -20t-31.5 -53q-1 -43 65 -67.5t171 -24.5q111 0 182 50z" />
    <glyph glyph-name="uni0294" unicode="&#x294;" horiz-adv-x="1176" 
d="M447 564h122q59 0 100 22.5t63 65.5t31 95t9 121v96q0 42 -3 76t-10.5 70.5t-22 63t-36 48t-55 33t-76.5 11.5q-81 0 -131.5 -41.5t-52.5 -111.5h-287q3 175 135.5 286t327.5 111q127 0 226.5 -42t162.5 -116t96 -172.5t33 -215.5v-96q0 -194 -87 -334t-252 -189v-345
h-307v564h14z" />
    <glyph glyph-name="uni0295" unicode="&#x295;" horiz-adv-x="1176" 
d="M450 0v342q-172 47 -262 187t-90 336v96q0 158 56.5 280.5t174.5 195.5t285 73q209 0 336.5 -114.5t128.5 -313.5h-287q-2 81 -49.5 132.5t-133.5 51.5q-63 0 -106 -27t-63 -75.5t-27 -95.5t-7 -107v-96q0 -37 2.5 -67t8.5 -64.5t19 -61t31.5 -50t47.5 -38t67 -18.5h174
v-566h-306z" />
    <glyph glyph-name="uni0296" unicode="&#x296;" horiz-adv-x="1176" 
d="M569 975h-149v514h308v-292q115 -32 195 -108.5t118.5 -182.5t37.5 -235v-143q0 -117 -32.5 -216t-95.5 -173.5t-162.5 -116.5t-225.5 -42q-206 0 -334 115t-131 312h287q2 -79 50 -130.5t134 -51.5q205 0 203 303v143q0 48 -3.5 87t-16 81.5t-34 70.5t-59.5 46.5
t-90 18.5z" />
    <glyph glyph-name="uni0297" unicode="&#x297;" horiz-adv-x="1176" 
d="M610 -199q80 0 130 42t52 114h287q-1 -174 -135 -286.5t-329 -112.5q-126 0 -225.5 41.5t-162.5 116t-96 173.5t-33 217v477q0 117 33 216t96 173.5t162.5 117t224.5 42.5q208 0 336 -115.5t129 -312.5h-287q-2 79 -50 131.5t-133 52.5q-63 0 -106 -27t-63 -75.5
t-27 -95.5t-7 -107v-477q0 -48 3.5 -86t16 -81t34 -71.5t60 -47.5t90.5 -19z" />
    <glyph glyph-name="uni0298" unicode="&#x298;" horiz-adv-x="1601" 
d="M1498 745q0 -179 -53.5 -324.5t-147 -241.5t-221 -147.5t-275.5 -51.5q-149 0 -276.5 52t-221.5 148t-147 241.5t-53 323.5q0 179 53 324.5t147 241.5t221.5 147.5t276.5 51.5q148 0 275.5 -51.5t221 -147.5t147 -241.5t53.5 -324.5zM1179 745q0 233 -102 359.5
t-276 126.5q-175 0 -276.5 -126.5t-101.5 -359.5t101.5 -360t276.5 -127q174 0 276 127t102 360zM801 571q-72 0 -124 51t-51 123q-1 71 51 122.5t124 51.5q70 0 121.5 -51.5t52.5 -122.5q-1 -72 -52.5 -123t-121.5 -51z" />
    <glyph glyph-name="uni0299" unicode="&#x299;" horiz-adv-x="1180" 
d="M124 0v1117h476q209 0 328 -79t119 -223q0 -90 -67.5 -150.5t-188.5 -81.5q148 -11 232.5 -88t84.5 -190q0 -144 -113.5 -224.5t-321.5 -80.5h-549zM412 232h261q65 0 102 31t37 85q0 59 -37.5 93.5t-101.5 34.5h-261v-244zM412 657h195q69 0 108.5 30t39.5 83
q0 51 -41.5 80.5t-113.5 29.5h-188v-223z" />
    <glyph glyph-name="uni029A" unicode="&#x29a;" horiz-adv-x="1197" 
d="M599 -20q-217 0 -356.5 88.5t-139.5 235.5q0 96 57 164t177 98q-106 32 -159.5 97.5t-53.5 146.5q0 153 129 237.5t345 84.5q110 0 203 -34.5t163.5 -102t110.5 -176t40 -247.5q0 -146 -41 -261t-113 -186t-164 -108t-198 -37zM647 543v-72h-61q-85 0 -134.5 -35.5
t-49.5 -101.5q0 -54 46.5 -90t133.5 -36q116 0 177.5 90t61.5 274q0 177 -66 255.5t-176 78.5q-79 0 -119 -34.5t-40 -86.5t42 -83t124 -31h61v-128z" />
    <glyph glyph-name="uni029B" unicode="&#x29b;" horiz-adv-x="1538" 
d="M1223 719h-300q-15 76 -66.5 109.5t-150.5 33.5q-108 0 -173.5 -65.5t-64.5 -169.5v-164q-1 -105 67.5 -171.5t187.5 -66.5q154 0 224 41v117h-228v205h511v-426q-32 -35 -68 -62t-95.5 -56.5t-147.5 -46t-196 -16.5q-246 0 -401.5 134.5t-154.5 347.5v162
q-1 212 150 345t389 133q187 0 309 -62q75 170 295 170q61 0 129 -17v-201q-58 7 -77 7q-70 0 -105 -32.5t-34 -107.5v-141z" />
    <glyph glyph-name="uni029C" unicode="&#x29c;" horiz-adv-x="1211" 
d="M420 1117v-435h381v435h294v-1117h-294v439h-381v-439h-296v1117h296z" />
    <glyph glyph-name="uni029D" unicode="&#x29d;" horiz-adv-x="966" 
d="M399 -433q-179 0 -272 76t-94 204t90.5 204t254.5 76h106v990h309v-990h270v-212h-270q-4 -72 -26 -131t-66 -109.5t-121 -79t-181 -28.5zM639 1261q-69 0 -118 46t-49 111t49 111t118 46t118.5 -46.5t49.5 -110.5q0 -65 -49.5 -111t-118.5 -46zM484 -85h-78
q-45 0 -75 -19t-31 -58q-1 -38 26 -56.5t68 -18.5q52 0 71 31.5t19 84.5v36z" />
    <glyph glyph-name="uni029E" unicode="&#x29e;" horiz-adv-x="1191" 
d="M1068 1117v-1489h-310v796h-17l-358 -424h-355l414 484l-435 633h362l305 -450l84 95v355h310z" />
    <glyph glyph-name="uni029F" unicode="&#x29f;" horiz-adv-x="987" 
d="M895 243v-243h-801v1082h307v-839h494z" />
    <glyph glyph-name="uni02A0" unicode="&#x2a0;" horiz-adv-x="1402" 
d="M1171 -419h-309v598h-10q-38 -83 -116 -140t-201 -57q-96 0 -178.5 38t-143.5 109t-96 181t-35 247q0 140 36 251t99 181t144 106.5t174 36.5q67 0 122 -18t92 -50t61.5 -64.5t41.5 -70.5h13v188q0 156 88.5 226t279.5 70q88 0 158 -17v-207q-47 14 -99 15
q-121 1 -121 -87v-1536zM868 559q0 151 -61.5 238.5t-173.5 87.5t-173 -89t-61 -237q0 -150 61.5 -240.5t172.5 -90.5q110 0 172.5 90t62.5 241z" />
    </font>
</defs>
</svg>
