<?xml version="1.0" standalone="no"?>
<!DOCTYPE svg PUBLIC "-//W3C//DTD SVG 1.1//EN" "http://www.w3.org/Graphics/SVG/1.1/DTD/svg11.dtd" >
<svg xmlns="http://www.w3.org/2000/svg" xmlns:xlink="http://www.w3.org/1999/xlink" version="1.1">
<metadata>
Created by FontForge 20170731 at Wed Nov  6 17:52:26 2019
 By Aleksey,,,
Copyright 2014 The Nunito Project Authors (https://github.com/googlefonts/NunitoFont)
</metadata>
<defs>
<font id="Nunito-Bold" horiz-adv-x="600" >
  <font-face 
    font-family="Nunito"
    font-weight="700"
    font-stretch="normal"
    units-per-em="1000"
    panose-1="0 0 8 0 0 0 0 0 0 0"
    ascent="800"
    descent="-200"
    x-height="489"
    cap-height="705"
    bbox="-442 -275 1318 1085"
    underline-thickness="50"
    underline-position="-150"
    unicode-range="U+000D-FB02"
  />
<missing-glyph horiz-adv-x="443" 
d="M363 -180h-281v885h281v-885zM149 646v-29h57v-33h-58v-29h147v29h-59v33h59v29h-146zM148 532v-92h147v30h-59v62h-88zM206 470h-29v31h29v-31zM148 416v-30h58v-32h-58v-30h88v62h59v30h-147zM266 363v-59h-118v-30h147v89h-29zM206 255v-50h30v20h30v-41h-89v71h-29
v-100h147v100h-89zM148 101v-100h147v100h-147zM266 31h-89v41h89v-41zM148 -19v-29h62l-62 -42v-29h147v29h-91l62 42h29v29h-147z" />
    <glyph glyph-name="fi" unicode="fi" horiz-adv-x="612" 
d="M431 606.5q-20 18.5 -20 48.5t20 48t54 18q33 0 53.5 -18t20.5 -48t-20.5 -48.5t-53.5 -18.5q-34 0 -54 18.5zM547 442v-388q0 -29 -17.5 -44.5t-44.5 -15.5t-45 15.5t-18 44.5v341h-198v-341q0 -29 -17.5 -44t-44.5 -15t-45 15t-18 44v341h-50q-56 0 -56 47t56 47h50v5
q0 93 49.5 147.5t139.5 62.5l23 2q5 1 15 1q53 0 53 -45q0 -22 -12 -34t-33 -14l-22 -2q-46 -4 -67 -28.5t-21 -71.5v-23h267q56 0 56 -47z" />
    <glyph glyph-name="fl" unicode="fl" horiz-adv-x="612" 
d="M245 584q-21 -25 -21 -72v-23h85q56 0 56 -47t-56 -47h-85v-341q0 -29 -17.5 -44t-44.5 -15t-45 15t-18 44v341h-50q-56 0 -56 47t56 47h50v7q0 94 49.5 147.5t139.5 60.5l26 2q40 3 56.5 -8.5t16.5 -35.5q0 -43 -49 -48l-26 -2q-46 -3 -67 -28zM440.5 9.5
q-17.5 15.5 -17.5 44.5v597q0 29 17.5 44t44.5 15t45 -15t18 -44v-597q0 -29 -18 -44.5t-45 -15.5t-44.5 15.5z" />
    <glyph glyph-name=".notdef" horiz-adv-x="443" 
d="M363 -180h-281v885h281v-885zM149 646v-29h57v-33h-58v-29h147v29h-59v33h59v29h-146zM148 532v-92h147v30h-59v62h-88zM206 470h-29v31h29v-31zM148 416v-30h58v-32h-58v-30h88v62h59v30h-147zM266 363v-59h-118v-30h147v89h-29zM206 255v-50h30v20h30v-41h-89v71h-29
v-100h147v100h-89zM148 101v-100h147v100h-147zM266 31h-89v41h89v-41zM148 -19v-29h62l-62 -42v-29h147v29h-91l62 42h29v29h-147z" />
    <glyph glyph-name=".null" horiz-adv-x="0" 
 />
    <glyph glyph-name="nonmarkingreturn" unicode="&#xd;" horiz-adv-x="271" 
 />
    <glyph glyph-name="NULL" horiz-adv-x="0" 
 />
    <glyph glyph-name="NULL" horiz-adv-x="0" 
 />
    <glyph glyph-name="space" unicode=" " horiz-adv-x="271" 
 />
    <glyph glyph-name="exclam" unicode="!" horiz-adv-x="248" 
d="M98.5 214q-10.5 10 -12.5 29l-37 389l-1 10q0 31 21.5 49.5t54.5 18.5q35 0 57 -21.5t18 -57.5l-37 -388q-2 -19 -12.5 -29t-25.5 -10t-25.5 10zM71 15.5q-21 21.5 -21 53.5t21 53.5t53 21.5t53 -21.5t21 -53.5t-21 -53.5t-53 -21.5t-53 21.5z" />
    <glyph glyph-name="quotedbl" unicode="&#x22;" horiz-adv-x="451" 
d="M80 449l-24 177q-2 14 -2 19q0 31 18.5 48t48.5 17q31 0 49 -17t18 -48q0 -5 -2 -19l-23 -177q-6 -40 -41 -40q-36 0 -42 40zM289 449l-24 177q-2 14 -2 19q0 31 18.5 48t48.5 17q31 0 49 -17t18 -48q0 -5 -2 -19l-23 -177q-6 -40 -41 -40q-36 0 -42 40z" />
    <glyph glyph-name="numbersign" unicode="#" 
d="M472 461l-40 -209h74q18 0 30 -12t12 -30q0 -17 -12 -28t-30 -11h-90l-28 -144q-3 -14 -13.5 -23t-26.5 -9q-19 0 -31.5 12t-12.5 30q0 7 1 11l24 123h-128l-28 -144q-2 -14 -13 -23t-25 -9q-19 0 -31 12t-12 30q0 7 1 11l24 123h-43q-18 0 -30 12t-12 30q0 17 12 28
t30 11h59l40 209h-79q-18 0 -30 12t-12 30q0 17 12 28t30 11h95l27 139q3 14 13.5 23t26.5 9q19 0 31 -12t12 -31q0 -7 -1 -11l-23 -117h127l27 139q2 14 13 23t27 9q19 0 31 -12t12 -30q0 -7 -1 -11l-23 -118h38q18 0 30 -12t12 -30q0 -17 -12 -28t-30 -11h-54zM345 252
l41 209h-127l-41 -209h127z" />
    <glyph glyph-name="dollar" unicode="$" 
d="M510.5 64q-55.5 -55 -149.5 -69v-63q0 -23 -14 -37.5t-37 -14.5t-37 14.5t-14 37.5v61q-57 5 -111 24t-93 50q-13 9 -18 20t-5 27q0 21 12.5 37t28.5 16q10 0 18.5 -3.5t22.5 -11.5q46 -30 90.5 -44t93.5 -14q67 0 103.5 26t36.5 75q0 29 -20 47t-50 28.5t-84 24.5
q-75 19 -122 38.5t-81 59.5t-34 108q0 81 58 138t152 71v63q0 23 14 37.5t37 14.5t37 -14.5t14 -37.5v-62q101 -13 174 -73q24 -18 24 -47q0 -21 -12.5 -37t-29.5 -16q-9 0 -17.5 3t-22.5 12q-41 29 -77.5 43.5t-86.5 14.5q-62 0 -99 -27.5t-37 -75.5q0 -33 21 -53.5
t53 -31.5t87 -25q73 -18 119 -37t78.5 -57.5t32.5 -104.5q0 -80 -55.5 -135z" />
    <glyph glyph-name="percent" unicode="%" horiz-adv-x="945" 
d="M310 -10q-13 -8 -26 -8q-18 0 -31.5 13t-13.5 33q0 17 10 34l364 629q9 16 22 24t26 8q18 0 31.5 -13t13.5 -33q0 -17 -10 -34l-364 -629q-9 -16 -22 -24zM90 339q-47 55 -47 161q0 105 47 160t131 55t131.5 -55t47.5 -160q0 -106 -47.5 -161t-131.5 -55t-131 55z
M276.5 396.5q17.5 31.5 17.5 103.5q0 70 -18 102t-55 32t-54.5 -31.5t-17.5 -102.5q0 -72 17.5 -103.5t54.5 -31.5q38 0 55.5 31.5zM593 48q-47 55 -47 162q0 105 47.5 159.5t130.5 54.5q84 0 131 -55t47 -160q0 -106 -47 -161t-131 -55t-131 55zM779 105.5
q18 31.5 18 103.5q0 70 -18 102t-55 32t-55 -32t-18 -102q0 -72 18 -103.5t55 -31.5t55 31.5z" />
    <glyph glyph-name="ampersand" unicode="&#x26;" horiz-adv-x="681" 
d="M677 43q0 -20 -16 -35.5t-37 -15.5t-37 15l-83 80q-47 -46 -105 -70.5t-120 -24.5q-70 0 -124.5 24t-85 68t-30.5 101q0 64 36.5 114t113.5 94q-38 39 -56.5 76t-18.5 77q0 76 53.5 121t139.5 45q80 0 127.5 -41.5t47.5 -111.5q0 -54 -31.5 -96.5t-98.5 -83.5l140 -137
q28 60 36 140q3 25 19 38.5t36 13.5q22 0 37 -15.5t12 -41.5q-10 -116 -64 -208l92 -90q17 -16 17 -36zM249.5 604.5q-22.5 -21.5 -22.5 -57.5q0 -25 13.5 -47.5t45.5 -55.5q51 29 72.5 54t21.5 56q0 32 -19.5 52t-52.5 20q-36 0 -58.5 -21.5zM364 106q38 17 70 49l-177 172
q-51 -30 -73.5 -62.5t-22.5 -73.5q0 -47 33.5 -74.5t90.5 -27.5q41 0 79 17z" />
    <glyph glyph-name="quotesingle" unicode="'" horiz-adv-x="242" 
d="M80 449l-24 177q-2 14 -2 19q0 31 18.5 48t48.5 17q31 0 49 -17t18 -48q0 -5 -2 -19l-23 -177q-6 -40 -41 -40q-36 0 -42 40z" />
    <glyph glyph-name="parenleft" unicode="(" horiz-adv-x="352" 
d="M101 263q0 223 108 410q12 19 27.5 28.5t31.5 9.5q17 0 28.5 -10.5t11.5 -28.5q0 -14 -5 -25q-74 -182 -74 -384q0 -101 18 -194.5t56 -187.5q5 -11 5 -25q0 -18 -11.5 -28.5t-28.5 -10.5q-16 0 -32 9t-27 28q-108 189 -108 409z" />
    <glyph glyph-name="parenright" unicode=")" horiz-adv-x="352" 
d="M116 -174q-16 -9 -32 -9q-17 0 -28.5 10.5t-11.5 28.5q0 14 5 25q38 94 56 187.5t18 194.5q0 202 -74 384q-5 11 -5 25q0 18 11.5 28.5t28.5 10.5q16 0 31.5 -9.5t27.5 -28.5q108 -187 108 -410q0 -220 -108 -409q-11 -19 -27 -28z" />
    <glyph glyph-name="asterisk" unicode="*" horiz-adv-x="452" 
d="M419 558.5q11 -12.5 11 -30.5t-11 -31t-31 -12l-98 5l54 -81q7 -11 7 -22q0 -17 -14.5 -29.5t-32.5 -12.5q-23 0 -34 21l-44 87l-44 -87q-12 -22 -34 -22q-18 0 -32.5 12.5t-14.5 29.5q0 12 7 22l54 82l-98 -5q-20 -1 -31 11.5t-11 30.5t11 31t31 12l98 -5l-54 81
q-7 10 -7 22q0 17 14.5 29t32.5 12q23 0 34 -21l44 -87l44 87q11 22 35 22q17 0 31.5 -12.5t14.5 -29.5q0 -12 -7 -22l-54 -81l98 5q20 1 31 -11.5z" />
    <glyph glyph-name="plus" unicode="+" 
d="M531.5 317.5q12.5 -12.5 12.5 -31.5t-12.5 -31.5t-31.5 -12.5h-156v-155q0 -19 -12.5 -32t-31.5 -13t-31.5 13t-12.5 32v155h-156q-19 0 -31.5 12.5t-12.5 31.5t12.5 31.5t31.5 12.5h156v156q0 19 12.5 31.5t31.5 12.5t31.5 -12.5t12.5 -31.5v-156h156q19 0 31.5 -12.5z
" />
    <glyph glyph-name="comma" unicode="," horiz-adv-x="248" 
d="M177 119q21 -25 21 -73q0 -95 -66 -164q-13 -13 -28 -13t-26 10t-11 24q0 12 10 23q30 32 39 72q-29 3 -47.5 22.5t-18.5 48.5q0 32 20.5 53.5t51.5 21.5q34 0 55 -25z" />
    <glyph glyph-name="hyphen" unicode="-" horiz-adv-x="434" 
d="M70.5 231q-14.5 13 -14.5 36t14.5 36.5t43.5 13.5h206q29 0 43.5 -13.5t14.5 -36.5t-14.5 -36t-43.5 -13h-206q-29 0 -43.5 13z" />
    <glyph glyph-name="period" unicode="." horiz-adv-x="248" 
d="M71 15.5q-21 21.5 -21 53.5t21 53.5t53 21.5t53 -21.5t21 -53.5t-21 -53.5t-53 -21.5t-53 21.5z" />
    <glyph glyph-name="slash" unicode="/" horiz-adv-x="313" 
d="M69 -62q-13 -9 -29 -9q-20 0 -35.5 13.5t-15.5 34.5q0 9 3 18l232 727q6 19 19 28t29 9q20 0 35.5 -13.5t15.5 -34.5q0 -9 -3 -18l-232 -727q-6 -19 -19 -28z" />
    <glyph glyph-name="zero" unicode="0" 
d="M109 83.5q-66 92.5 -66 269.5q0 176 66 268.5t191 92.5t191 -92.5t66 -268.5t-66 -269t-191 -93t-191 92.5zM399 154.5q31 62.5 31 198.5q0 137 -31 198.5t-99 61.5t-99 -62t-31 -198t31 -198.5t99 -62.5t99 62.5z" />
    <glyph glyph-name="one" unicode="1" 
d="M561 53q0 -53 -60 -53h-338q-61 0 -61 53q0 51 61 51h104v456l-96 -59q-14 -8 -25 -8q-21 0 -35.5 18t-14.5 40q0 29 26 45l155 96q30 18 57 18q28 0 45 -17t17 -47v-542h105q60 0 60 -51z" />
    <glyph glyph-name="two" unicode="2" horiz-adv-x="601" 
d="M558 53q0 -53 -60 -53h-380q-26 0 -41 15.5t-15 38.5q0 30 23 54l228 245q42 46 61.5 84.5t19.5 76.5q0 47 -27 72t-77 25q-41 0 -79.5 -15.5t-77.5 -42.5q-10 -7 -20 -11.5t-20 -4.5q-17 0 -29.5 16t-12.5 38q0 15 5.5 26t17.5 21q44 35 103 55.5t118 20.5
q103 0 164.5 -52t61.5 -140q0 -61 -26 -114.5t-88 -119.5l-173 -184h264q60 0 60 -51z" />
    <glyph glyph-name="three" unicode="3" 
d="M504.5 301.5q33.5 -44.5 33.5 -110.5q0 -91 -67 -145t-181 -54q-65 0 -125 20t-102 56q-23 20 -23 47q0 22 12.5 37.5t29.5 15.5q10 0 18 -3.5t22 -11.5q42 -28 80 -43t83 -15q66 0 98 26.5t32 80.5q0 53 -33.5 78.5t-103.5 25.5h-57q-23 0 -35.5 15.5t-12.5 35.5
q0 21 12.5 36t35.5 15h40q137 0 137 103q0 48 -29 74t-80 26q-73 0 -156 -58q-14 -8 -22 -11.5t-18 -3.5q-17 0 -29.5 15.5t-12.5 37.5q0 15 5.5 25.5t17.5 21.5q42 35 100.5 55.5t119.5 20.5q104 0 165.5 -51t61.5 -136q-1 -58 -30.5 -101.5t-82.5 -63.5q63 -16 96.5 -60.5
z" />
    <glyph glyph-name="four" unicode="4" 
d="M570 225q15 -13 15 -37q0 -50 -60 -50h-51v-79q0 -31 -17.5 -48t-45.5 -17t-45.5 17t-17.5 48v79h-262q-27 0 -42 15.5t-15 38.5q0 24 16 46l309 444q10 14 25 21.5t31 7.5q26 0 45 -17t19 -48v-408h51q30 0 45 -13zM162 238h186v269z" />
    <glyph glyph-name="five" unicode="5" 
d="M453.5 422.5q50.5 -28.5 78.5 -79.5t28 -117q0 -69 -31.5 -122t-89 -82.5t-132.5 -29.5q-62 0 -121.5 20.5t-101.5 55.5q-23 20 -23 47q0 22 12.5 37.5t29.5 15.5q10 0 19 -3.5t21 -11.5q40 -28 78 -43t81 -15q66 0 101 33t35 94q0 59 -35.5 93.5t-97.5 34.5
q-39 0 -69.5 -11t-62.5 -37q-19 -13 -39 -13t-34 12t-14 32v312q0 28 16 44t45 16h333q60 0 60 -50t-60 -50h-268v-190q51 36 125 36q66 0 116.5 -28.5z" />
    <glyph glyph-name="six" unicode="6" 
d="M455 423.5q49 -28.5 76.5 -80t27.5 -117.5q0 -68 -30.5 -121.5t-84 -83.5t-121.5 -30q-134 0 -206.5 90.5t-72.5 258.5q0 115 34 199.5t97.5 129.5t149.5 45q57 0 114.5 -20.5t97.5 -55.5q13 -11 18.5 -21.5t5.5 -25.5q0 -22 -12.5 -37.5t-29.5 -15.5q-10 0 -19 3.5
t-22 11.5q-83 58 -148 58q-73 0 -115 -67.5t-44 -189.5q23 45 69 71.5t103 26.5q63 0 112 -28.5zM404 128.5q33 35.5 33 93.5t-33 93t-88 35q-56 0 -90.5 -35.5t-34.5 -92.5q0 -58 34.5 -93.5t90.5 -35.5q55 0 88 35.5z" />
    <glyph glyph-name="seven" unicode="7" 
d="M543 690.5q14 -14.5 14 -37.5t-14 -48l-319 -579q-20 -34 -55 -34q-24 0 -42.5 16.5t-18.5 40.5q0 17 10 34l287 518h-302q-60 0 -60 51q0 53 60 53h400q26 0 40 -14.5z" />
    <glyph glyph-name="eight" unicode="8" 
d="M530.5 300q33.5 -45 33.5 -110q0 -93 -70 -145.5t-194 -52.5t-194 52.5t-70 145.5q0 65 34 110.5t96 61.5q-53 20 -83 62.5t-30 99.5q0 88 66 139t181 51t181 -51t66 -139q0 -58 -30 -101t-82 -61q62 -17 95.5 -62zM175 511q0 -51 31.5 -77.5t93.5 -26.5t93.5 26.5
t31.5 77.5q0 102 -125 102t-125 -102zM443 200q0 107 -143 107t-143 -107t143 -107t143 107z" />
    <glyph glyph-name="nine" unicode="9" 
d="M483.5 623.5q72.5 -90.5 72.5 -258.5q0 -115 -34 -199.5t-97.5 -129.5t-149.5 -45q-57 0 -114.5 20.5t-97.5 55.5q-13 11 -18.5 21.5t-5.5 25.5q0 22 12.5 37.5t29.5 15.5q10 0 19 -3.5t22 -11.5q83 -58 148 -58q73 0 115 67.5t44 189.5q-23 -45 -69 -71.5t-103 -26.5
q-63 0 -112 28.5t-76.5 80t-27.5 117.5q0 68 30.5 121.5t84 83.5t121.5 30q134 0 206.5 -90.5zM374.5 390.5q34.5 35.5 34.5 92.5q0 58 -34.5 93.5t-90.5 35.5q-55 0 -88 -35.5t-33 -93.5t33 -93t88 -35q56 0 90.5 35.5z" />
    <glyph glyph-name="colon" unicode=":" horiz-adv-x="248" 
d="M71 371.5q-21 21.5 -21 53.5t21 53t53 21t53 -21t21 -53t-21 -53.5t-53 -21.5t-53 21.5zM71 15.5q-21 21.5 -21 53.5t21 53.5t53 21.5t53 -21.5t21 -53.5t-21 -53.5t-53 -21.5t-53 21.5z" />
    <glyph glyph-name="semicolon" unicode=";" horiz-adv-x="248" 
d="M71 371.5q-21 21.5 -21 53.5t21 53t53 21t53 -21t21 -53t-21 -53.5t-53 -21.5t-53 21.5zM177 119q21 -25 21 -73q0 -95 -66 -164q-13 -13 -28 -13t-26 10t-11 24q0 12 10 23q30 32 39 72q-29 3 -47.5 22.5t-18.5 48.5q0 32 20.5 53.5t51.5 21.5q34 0 55 -25z" />
    <glyph glyph-name="less" unicode="&#x3c;" 
d="M544 101q0 -20 -13.5 -32.5t-33.5 -12.5q-14 0 -25 5l-371 158q-21 9 -33 26.5t-12 40.5q0 22 12 40t33 26l371 159q13 5 25 5q20 0 33.5 -12.5t13.5 -32.5q0 -26 -25 -37l-353 -148l353 -148q25 -11 25 -37z" />
    <glyph glyph-name="equal" unicode="=" 
d="M74.5 354.5q-12.5 12.5 -12.5 31.5t12.5 31.5t31.5 12.5h400q19 0 31.5 -13t12.5 -32q0 -18 -12.5 -30.5t-31.5 -12.5h-400q-19 0 -31.5 12.5zM74.5 154.5q-12.5 12.5 -12.5 31.5t12.5 31.5t31.5 12.5h400q19 0 31.5 -13t12.5 -32q0 -18 -12.5 -30.5t-31.5 -12.5h-400
q-19 0 -31.5 12.5z" />
    <glyph glyph-name="greater" unicode="&#x3e;" 
d="M532 326q12 -18 12 -40q0 -23 -12 -40.5t-33 -26.5l-371 -158q-11 -5 -25 -5q-20 0 -33.5 12.5t-13.5 32.5q0 26 25 37l353 148l-353 148q-25 11 -25 37q0 20 13.5 32.5t33.5 12.5q12 0 25 -5l371 -159q21 -8 33 -26z" />
    <glyph glyph-name="question" unicode="?" horiz-adv-x="459" 
d="M191.5 216q-10.5 12 -10.5 33q0 55 20 93t58 83q30 36 44 60t14 54q0 33 -24.5 52.5t-66.5 19.5q-36 0 -69 -15.5t-77 -44.5q-25 -14 -41 -14q-17 0 -29.5 15.5t-12.5 36.5q0 29 24 47q42 36 99 56.5t115 20.5q61 0 108.5 -21t74 -58t26.5 -85q0 -52 -25 -90.5t-73 -86.5
q-41 -42 -61.5 -70.5t-25.5 -64.5q-3 -16 -13.5 -24.5t-26.5 -8.5q-17 0 -27.5 12zM168 15.5q-21 21.5 -21 53.5t21 53.5t53 21.5t53 -21.5t21 -53.5t-21.5 -53.5t-52.5 -21.5q-32 0 -53 21.5z" />
    <glyph glyph-name="at" unicode="@" horiz-adv-x="934" 
d="M248 -102.5q-98 53.5 -151 149.5t-53 221q0 136 56.5 236t155 153.5t222.5 53.5q130 0 223.5 -50t141.5 -134t48 -185q0 -91 -28 -154t-74.5 -94t-103.5 -31q-53 0 -85 23t-38 63h-2q-56 -86 -147 -86q-71 0 -112.5 48.5t-41.5 130.5q0 70 26.5 129t75 93.5t109.5 34.5
q43 0 75.5 -19t44.5 -52h2l5 25q2 17 14 26t32 9t31.5 -11t11.5 -30q0 -9 -1 -13l-34 -193q-4 -21 -4 -43q0 -31 13 -46t42 -15q23 0 46 20.5t39 66.5t16 118q0 82 -36.5 147.5t-110 103.5t-178.5 38q-98 0 -175.5 -43t-122 -125t-44.5 -195q0 -104 41 -181.5t118 -120
t182 -42.5q69 0 121 16.5t96 49.5q14 11 30 11q17 0 28 -12t11 -29q0 -22 -19 -37q-41 -35 -111.5 -57t-155.5 -22q-131 0 -229 53.5zM507.5 164q31.5 27 48 70t16.5 90q0 49 -23 74.5t-64 25.5t-71.5 -26.5t-46 -68t-15.5 -86.5q0 -49 22.5 -77.5t58.5 -28.5q43 0 74.5 27z
" />
    <glyph glyph-name="A" unicode="A" horiz-adv-x="742" 
d="M721 51q0 -23 -18.5 -39t-42.5 -16q-16 0 -30 8.5t-22 26.5l-60 134h-352l-60 -134q-8 -18 -22 -26.5t-31 -8.5q-23 0 -42 16t-19 39q0 13 6 26l276 593q9 20 27.5 30.5t39.5 10.5t39.5 -10.5t27.5 -30.5l277 -593q6 -13 6 -26zM240 265h264l-132 297z" />
    <glyph glyph-name="B" unicode="B" horiz-adv-x="683" 
d="M604.5 302q33.5 -45 33.5 -110q0 -90 -64.5 -141t-177.5 -51h-258q-29 0 -45.5 16t-16.5 45v583q0 29 16.5 45t45.5 16h248q110 0 172.5 -48.5t62.5 -135.5q0 -56 -29.5 -97t-81.5 -60q61 -17 94.5 -62zM202 408h163q133 0 133 99q0 50 -33 74t-100 24h-163v-197z
M484 125q32 25 32 78t-32.5 79t-101.5 26h-180v-208h180q70 0 102 25z" />
    <glyph glyph-name="C" unicode="C" horiz-adv-x="678" 
d="M212.5 35q-76.5 44 -117.5 126t-41 192t41 191.5t117.5 125.5t178.5 44q66 0 124 -19.5t103 -56.5q13 -10 18 -21t5 -27q0 -22 -12 -37t-29 -15q-20 0 -41 14q-43 32 -80 44.5t-82 12.5q-104 0 -157.5 -65t-53.5 -191q0 -127 53.5 -192t157.5 -65q43 0 79.5 13t82.5 44
q10 6 20 10t21 4q17 0 29 -15t12 -37q0 -15 -5 -26.5t-18 -21.5q-45 -37 -103 -56.5t-124 -19.5q-102 0 -178.5 44z" />
    <glyph glyph-name="D" unicode="D" horiz-adv-x="754" 
d="M92.5 16q-16.5 16 -16.5 45v583q0 29 16.5 45t45.5 16h198q173 0 268.5 -92.5t95.5 -259.5q0 -168 -95.5 -260.5t-268.5 -92.5h-198q-29 0 -45.5 16zM571 353q0 247 -243 247h-123v-495h123q243 0 243 248z" />
    <glyph glyph-name="E" unicode="E" horiz-adv-x="589" 
d="M92.5 16q-16.5 16 -16.5 45v583q0 29 16.5 45t45.5 16h361q29 0 45 -13t16 -37q0 -25 -16 -38.5t-45 -13.5h-297v-194h277q29 0 45 -13t16 -38q0 -24 -16 -37t-45 -13h-277v-206h297q29 0 45 -13.5t16 -38.5q0 -24 -16 -37t-45 -13h-361q-29 0 -45.5 16z" />
    <glyph glyph-name="F" unicode="F" horiz-adv-x="566" 
d="M93.5 12q-17.5 18 -17.5 47v585q0 29 16.5 45t45.5 16h351q61 0 61 -52q0 -51 -61 -51h-286v-192h266q61 0 61 -52q0 -51 -61 -51h-266v-248q0 -29 -17 -47t-46 -18t-46.5 18z" />
    <glyph glyph-name="G" unicode="G" horiz-adv-x="733" 
d="M650 367.5q14 -13.5 14 -35.5v-215q0 -46 -12 -65t-49 -31q-40 -14 -93 -22t-102 -8q-109 0 -189 43t-122.5 124.5t-42.5 194.5q0 111 42.5 192.5t120.5 125t184 43.5q141 0 231 -76q12 -11 17.5 -22t5.5 -26q0 -22 -12 -37t-29 -15q-11 0 -20 3.5t-21 11.5
q-44 31 -82 43.5t-86 12.5q-109 0 -164.5 -64.5t-55.5 -191.5q0 -260 228 -260q68 0 136 19v177h-113q-24 0 -37.5 12t-13.5 34t13.5 34t37.5 12h177q23 0 37 -13.5z" />
    <glyph glyph-name="H" unicode="H" horiz-adv-x="766" 
d="M673 692.5q17 -17.5 17 -46.5v-587q0 -29 -17.5 -47t-45.5 -18q-29 0 -46 18t-17 47v247h-361v-247q0 -29 -17.5 -47t-46.5 -18q-28 0 -45.5 18t-17.5 47v587q0 29 17 46.5t46 17.5t46.5 -17.5t17.5 -46.5v-236h361v236q0 29 17 46.5t46 17.5t46 -17.5z" />
    <glyph glyph-name="I" unicode="I" horiz-adv-x="281" 
d="M93.5 12q-17.5 18 -17.5 47v587q0 29 17.5 46.5t46.5 17.5q30 0 47.5 -17.5t17.5 -46.5v-587q0 -29 -17.5 -47t-47.5 -18q-29 0 -46.5 18z" />
    <glyph glyph-name="J" unicode="J" horiz-adv-x="358" 
d="M-14 47q0 24 12.5 36.5t39.5 14.5l32 2q41 2 62 26t21 73v447q0 29 17.5 46.5t46.5 17.5q30 0 47.5 -17.5t17.5 -46.5v-447q0 -189 -187 -203l-32 -2q-77 -3 -77 53z" />
    <glyph glyph-name="K" unicode="K" horiz-adv-x="660" 
d="M643 54q0 -23 -17.5 -40.5t-41.5 -17.5q-25 0 -46 21l-333 312v-270q0 -29 -17.5 -47t-47.5 -18q-29 0 -46.5 18t-17.5 47v587q0 29 17.5 46.5t46.5 17.5q30 0 47.5 -17.5t17.5 -46.5v-257l322 302q18 18 41 18t40.5 -17.5t17.5 -40.5t-20 -42l-269 -246l286 -266
q20 -19 20 -43z" />
    <glyph glyph-name="L" unicode="L" horiz-adv-x="555" 
d="M92 16q-16 16 -16 44v586q0 29 17.5 46.5t46.5 17.5q30 0 47.5 -17.5t17.5 -46.5v-540h281q60 0 60 -53t-60 -53h-349q-29 0 -45 16z" />
    <glyph glyph-name="M" unicode="M" horiz-adv-x="841" 
d="M747 692.5q17 -17.5 17 -46.5v-592q0 -28 -16 -44t-42 -16t-41 16t-15 44v412l-170 -322q-12 -22 -26 -32.5t-33 -10.5t-33 10t-26 33l-171 317v-407q0 -27 -15.5 -43.5t-41.5 -16.5t-41 16t-15 44v592q0 29 16.5 46.5t44.5 17.5q39 0 61 -43l222 -423l221 423
q22 43 59 43q28 0 45 -17.5z" />
    <glyph glyph-name="N" unicode="N" horiz-adv-x="747" 
d="M654.5 692.5q16.5 -17.5 16.5 -46.5v-587q0 -29 -17 -47t-44 -18q-32 0 -49 23l-365 475v-433q0 -29 -16 -47t-44 -18t-44 18t-16 47v587q0 29 17 46.5t45 17.5q31 0 48 -23l364 -473v432q0 29 16.5 46.5t43.5 17.5q28 0 44.5 -17.5z" />
    <glyph glyph-name="O" unicode="O" horiz-adv-x="779" 
d="M211.5 35q-75.5 44 -116.5 126t-41 192t40.5 191.5t116.5 125.5t179 44t178.5 -44t116 -125.5t40.5 -191.5t-41 -192t-116.5 -126t-177.5 -44q-103 0 -178.5 44zM541.5 161q54.5 67 54.5 192t-54.5 191.5t-151.5 66.5q-98 0 -152.5 -66.5t-54.5 -191.5t54.5 -192
t152.5 -67q97 0 151.5 67z" />
    <glyph glyph-name="P" unicode="P" horiz-adv-x="660" 
d="M93.5 11.5q-17.5 17.5 -17.5 47.5v585q0 29 16.5 45t45.5 16h246q113 0 176 -56.5t63 -158.5t-63 -159t-176 -57h-179v-215q0 -30 -17.5 -47.5t-47.5 -17.5q-29 0 -46.5 17.5zM501 489q0 116 -133 116h-163v-232h163q133 0 133 116z" />
    <glyph glyph-name="Q" unicode="Q" horiz-adv-x="779" 
d="M653 -98q11 -18 11 -35q0 -23 -18 -37.5t-42 -14.5q-18 0 -34 8.5t-26 25.5l-59 97q-14 23 -36.5 34t-58.5 11q-103 0 -178.5 44t-116.5 126t-41 192t41 191.5t116.5 125.5t178.5 44q102 0 177.5 -44t116.5 -125.5t41 -191.5q0 -119 -47.5 -204.5t-135.5 -124.5
q46 -16 76 -66zM541.5 161q54.5 67 54.5 192t-54.5 191.5t-151.5 66.5q-98 0 -152.5 -66.5t-54.5 -191.5t54.5 -192t152.5 -67q97 0 151.5 67z" />
    <glyph glyph-name="R" unicode="R" horiz-adv-x="695" 
d="M652 46q0 -23 -18.5 -38t-43.5 -15q-16 0 -30.5 7.5t-24.5 22.5l-133 202q-20 32 -42.5 45t-58.5 13h-98v-224q0 -30 -17 -47.5t-46 -17.5t-46.5 17.5t-17.5 47.5v585q0 29 16.5 45t45.5 16h250q120 0 182.5 -53.5t62.5 -154.5q0 -82 -46.5 -134.5t-131.5 -67.5
q29 -7 51 -25t43 -50l91 -139q12 -18 12 -35zM477 409.5q34 27.5 34 84.5q0 58 -34 84.5t-107 26.5h-168v-223h168q73 0 107 27.5z" />
    <glyph glyph-name="S" unicode="S" horiz-adv-x="638" 
d="M174.5 11.5q-68.5 20.5 -111.5 55.5q-23 17 -23 48q0 21 12.5 36.5t29.5 15.5q18 0 41 -14q43 -31 90 -45t104 -14q73 0 112 25.5t39 74.5q0 38 -36.5 58.5t-121.5 39.5q-88 19 -143 44t-83 64t-28 99q0 62 35 111t97.5 76.5t140.5 27.5q143 0 233 -76q13 -11 18.5 -21.5
t5.5 -26.5q0 -21 -12.5 -36.5t-29.5 -15.5q-10 0 -18.5 3t-22.5 11q-41 30 -79.5 44.5t-94.5 14.5q-68 0 -107.5 -27.5t-39.5 -76.5q0 -41 35 -63t119 -41q89 -20 144.5 -44.5t85 -62.5t29.5 -95q0 -62 -34.5 -109.5t-97 -74t-143.5 -26.5q-77 0 -145.5 20.5z" />
    <glyph glyph-name="T" unicode="T" horiz-adv-x="613" 
d="M259.5 12.5q-17.5 17.5 -17.5 46.5v540h-182q-60 0 -60 53t60 53h493q60 0 60 -53t-60 -53h-182v-540q0 -29 -17.5 -46.5t-46.5 -17.5q-30 0 -47.5 17.5z" />
    <glyph glyph-name="U" unicode="U" horiz-adv-x="733" 
d="M147 66q-75 75 -75 219v361q0 29 17 46.5t46 17.5t46 -17.5t17 -46.5v-368q0 -91 43 -137.5t126 -46.5q82 0 125 47t43 137v368q0 29 17 46.5t46 17.5t46 -17.5t17 -46.5v-361q0 -143 -75 -218.5t-219 -75.5q-145 0 -220 75z" />
    <glyph glyph-name="V" unicode="V" horiz-adv-x="714" 
d="M642 711q25 0 45 -16t20 -40q0 -11 -6 -25l-277 -596q-9 -19 -27.5 -29.5t-39.5 -10.5t-39.5 10.5t-27.5 29.5l-276 596q-6 14 -6 24q0 25 20.5 41t46.5 16q17 0 31.5 -8.5t22.5 -25.5l230 -511l230 511q16 34 53 34z" />
    <glyph glyph-name="W" unicode="W" horiz-adv-x="1110" 
d="M982.5 701q15.5 10 34.5 10q24 0 41.5 -15t17.5 -40q0 -9 -5 -26l-215 -595q-8 -20 -26.5 -31t-40.5 -11t-41 11t-26 31l-166 471l-169 -471q-8 -20 -26.5 -31t-40.5 -11t-40.5 11t-25.5 31l-215 595q-5 15 -5 26q0 25 18.5 40t43.5 15q20 0 36 -10t23 -30l170 -489
l175 486q7 20 23 31.5t35 11.5t35.5 -11.5t23.5 -32.5l170 -491l173 495q7 20 22.5 30z" />
    <glyph glyph-name="X" unicode="X" horiz-adv-x="664" 
d="M640 54q0 -24 -18.5 -42t-42.5 -18q-25 0 -44 22l-203 252l-204 -252q-18 -21 -43 -21q-24 0 -42.5 17.5t-18.5 41.5q0 20 15 38l218 266l-209 255q-15 16 -15 38q0 24 18 41.5t42 17.5q25 0 44 -22l195 -241l195 241q18 22 43 22q24 0 42.5 -17.5t18.5 -41.5
q0 -22 -15 -38l-209 -255l217 -266q16 -19 16 -38z" />
    <glyph glyph-name="Y" unicode="Y" horiz-adv-x="623" 
d="M559 710q23 0 41 -17.5t18 -41.5q0 -20 -15 -38l-227 -277v-277q0 -31 -18 -48t-46 -17q-29 0 -47 17t-18 48v277l-227 277q-15 18 -15 38q0 24 18 41.5t41 17.5q25 0 43 -22l205 -254l204 254q18 22 43 22z" />
    <glyph glyph-name="Z" unicode="Z" horiz-adv-x="602" 
d="M579 52q0 -52 -60 -52h-426q-26 0 -41.5 15.5t-15.5 39.5t16 46l358 501h-313q-60 0 -60 51q0 52 60 52h413q26 0 41.5 -15.5t15.5 -38.5t-17 -46l-358 -502h327q60 0 60 -51z" />
    <glyph glyph-name="bracketleft" unicode="[" horiz-adv-x="351" 
d="M137.5 -148q-31.5 32 -31.5 89v643q0 57 31.5 89t89.5 32h75q21 0 35 -12t14 -35t-14 -35t-35 -12h-32q-21 0 -31.5 -10.5t-10.5 -33.5v-609q0 -23 10.5 -33.5t31.5 -10.5h32q21 0 35 -12t14 -35t-14 -35t-35 -12h-75q-58 0 -89.5 32z" />
    <glyph glyph-name="backslash" unicode="\" horiz-adv-x="312" 
d="M-11 711q0 21 15.5 34.5t35.5 13.5q16 0 29 -9t19 -28l232 -727q3 -9 3 -18q0 -21 -15.5 -34.5t-35.5 -13.5q-16 0 -29 9t-19 28l-232 727q-3 9 -3 18z" />
    <glyph glyph-name="bracketright" unicode="]" horiz-adv-x="351" 
d="M14 -168q-14 12 -14 35t14 35t35 12h32q21 0 31.5 10.5t10.5 33.5v609q0 23 -10.5 33.5t-31.5 10.5h-32q-21 0 -35 12t-14 35t14 35t35 12h75q58 0 89.5 -32t31.5 -89v-643q0 -57 -31.5 -89t-89.5 -32h-75q-21 0 -35 12z" />
    <glyph glyph-name="asciicircum" unicode="^" 
d="M531 187q0 -20 -14.5 -32.5t-32.5 -12.5q-27 0 -35 24l-149 353l-149 -353q-8 -24 -35 -24q-18 0 -32.5 13t-14.5 32q0 9 5 22l161 377q8 20 25.5 32t39.5 12t39.5 -12t25.5 -32l161 -377q5 -13 5 -22z" />
    <glyph glyph-name="underscore" unicode="_" horiz-adv-x="500" 
d="M13 -64.5q-13 10.5 -13 27.5q0 16 13.5 26.5t34.5 10.5h404q21 0 34.5 -10.5t13.5 -26.5q0 -17 -13 -27.5t-35 -10.5h-404q-22 0 -35 10.5z" />
    <glyph glyph-name="grave" unicode="`" horiz-adv-x="300" 
d="M-31 709q0 21 16 36.5t38 15.5q29 0 52 -30l97 -129q8 -9 8 -22t-9.5 -22.5t-22.5 -9.5q-12 0 -23 8l-129 105q-27 20 -27 48z" />
    <glyph glyph-name="a" unicode="a" horiz-adv-x="540" 
d="M428.5 450.5q49.5 -50.5 49.5 -153.5v-244q0 -27 -16 -42.5t-44 -15.5q-26 0 -42.5 16t-16.5 42v22q-17 -39 -53.5 -61t-84.5 -22q-49 0 -89 20t-63 55t-23 78q0 54 27.5 85t89.5 45t171 14h25v23q0 49 -21 71.5t-68 22.5q-29 0 -59 -8.5t-71 -24.5q-26 -13 -38 -13
q-18 0 -29.5 13t-11.5 34q0 17 8.5 29.5t28.5 23.5q35 19 83.5 30t95.5 11q102 0 151.5 -50.5zM327.5 115.5q31.5 33.5 31.5 86.5v21h-18q-67 0 -104 -6t-53 -21t-16 -41q0 -32 22.5 -52.5t55.5 -20.5q50 0 81.5 33.5z" />
    <glyph glyph-name="b" unicode="b" horiz-adv-x="601" 
d="M459 470q49 -31 76.5 -88t27.5 -133t-27.5 -134.5t-77 -90.5t-112.5 -32q-53 0 -94.5 23t-63.5 64v-25q0 -27 -17 -43t-45 -16t-44.5 16t-16.5 43v598q0 26 17.5 42t45.5 16t45 -15t17 -41v-236q22 40 63 61.5t93 21.5q64 0 113 -31zM405 131q33 42 33 118
q0 75 -32.5 115t-92.5 40t-92.5 -40.5t-32.5 -116.5t32.5 -117t92.5 -41q59 0 92 42z" />
    <glyph glyph-name="c" unicode="c" horiz-adv-x="488" 
d="M153.5 23q-55.5 31 -85.5 88t-30 133t31.5 134.5t88.5 90.5t131 32q39 0 78.5 -11t69.5 -30q32 -21 32 -53q0 -22 -10.5 -35.5t-27.5 -13.5q-11 0 -23 5t-24 12q-22 13 -42 20.5t-46 7.5q-62 0 -95.5 -40.5t-33.5 -116.5q0 -75 33.5 -115.5t95.5 -40.5q25 0 44.5 7.5
t43.5 20.5q15 9 26 13.5t22 4.5q16 0 27 -14t11 -35q0 -17 -7.5 -29.5t-24.5 -22.5q-31 -20 -72 -31.5t-84 -11.5q-73 0 -128.5 31z" />
    <glyph glyph-name="d" unicode="d" horiz-adv-x="601" 
d="M519 694q18 -16 18 -42v-598q0 -27 -17 -43t-45 -16t-45 16t-17 43v25q-22 -41 -63.5 -64t-94.5 -23q-63 0 -112.5 32t-77 90.5t-27.5 134.5t27.5 133t76.5 88t113 31q53 0 94 -22t63 -62v237q0 25 16.5 40.5t44.5 15.5t46 -16zM380.5 130q32.5 41 32.5 117t-32.5 116.5
t-91.5 40.5q-60 0 -93 -40t-33 -115q0 -76 33 -118t92 -42q60 0 92.5 41z" />
    <glyph glyph-name="e" unicode="e" horiz-adv-x="531" 
d="M479.5 121q10.5 -13 10.5 -35q0 -31 -37 -52q-34 -19 -77 -30.5t-82 -11.5q-118 0 -187 68t-69 186q0 75 30 133t84.5 90t123.5 32q66 0 115 -29t76 -82t27 -125q0 -43 -38 -43h-295q6 -69 39 -101.5t96 -32.5q32 0 56.5 8t55.5 22q30 16 44 16q17 0 27.5 -13zM197.5 381
q-30.5 -32 -36.5 -92h226q-2 61 -30 92.5t-78 31.5q-51 0 -81.5 -32z" />
    <glyph glyph-name="f" unicode="f" horiz-adv-x="358" 
d="M245 584q-21 -25 -21 -72v-23h85q56 0 56 -47t-56 -47h-85v-341q0 -29 -17.5 -44t-44.5 -15t-45 15t-18 44v341h-50q-56 0 -56 47t56 47h50v7q0 94 49.5 147.5t139.5 60.5l26 2q40 3 56.5 -8.5t16.5 -35.5q0 -43 -49 -48l-26 -2q-46 -3 -67 -28z" />
    <glyph glyph-name="g" unicode="g" horiz-adv-x="605" 
d="M524 483q17 -16 17 -43v-395q0 -115 -64 -174t-189 -59q-109 0 -182 41q-37 22 -37 53q0 22 10.5 35t27.5 13q9 0 22 -4.5t27 -10.5q36 -15 64.5 -23t65.5 -8q131 0 131 128v64q-22 -41 -64 -63.5t-96 -22.5q-64 0 -113.5 30.5t-77.5 85.5t-28 127t27.5 127.5t77.5 86
t114 30.5q54 0 96 -22.5t64 -63.5v26q0 26 17 42t45 16t45 -16zM383.5 150q33.5 39 33.5 107q0 69 -33.5 108t-93.5 39q-59 0 -93 -39t-34 -108q0 -68 34 -107t93 -39q60 0 93.5 39z" />
    <glyph glyph-name="h" unicode="h" horiz-adv-x="585" 
d="M523 300v-246q0 -28 -16.5 -44t-45.5 -16t-46 16t-17 44v246q0 53 -21.5 77.5t-67.5 24.5q-54 0 -86.5 -34t-32.5 -91v-223q0 -28 -17 -44t-46 -16t-45.5 16t-16.5 44v598q0 26 17.5 42t45.5 16t45 -15t17 -41v-233q25 39 66.5 59.5t94.5 20.5q172 0 172 -201z" />
    <glyph glyph-name="i" unicode="i" horiz-adv-x="254" 
d="M82.5 9.5q-17.5 15.5 -17.5 44.5v386q0 29 17.5 44t44.5 15t45 -15t18 -44v-386q0 -29 -18 -44.5t-45 -15.5t-44.5 15.5zM73 606.5q-20 18.5 -20 48.5t20 48t54 18q33 0 53.5 -18t20.5 -48t-20 -48.5t-54 -18.5t-54 18.5z" />
    <glyph glyph-name="j" unicode="j" horiz-adv-x="254" 
d="M-60.5 -172q-19.5 12 -19.5 37q0 41 50 45l27 2q34 2 51 21t17 58v449q0 29 17.5 44t44.5 15t45 -15t18 -44v-440q0 -168 -168 -180l-27 -2q-36 -2 -55.5 10zM72 606.5q-20 18.5 -20 48.5t20 48t54 18q33 0 53.5 -18t20.5 -48t-20 -48.5t-54 -18.5t-54 18.5z" />
    <glyph glyph-name="k" unicode="k" horiz-adv-x="536" 
d="M520 54q0 -23 -16.5 -41t-38.5 -18t-41 18l-234 212v-171q0 -29 -18 -44t-45 -15t-44.5 15t-17.5 44v597q0 29 17.5 44t44.5 15t45 -15t18 -44v-376l214 205q18 18 41 18t40 -17t17 -40t-19 -42l-157 -146l174 -156q20 -19 20 -43z" />
    <glyph glyph-name="l" unicode="l" horiz-adv-x="254" 
d="M82.5 9.5q-17.5 15.5 -17.5 44.5v597q0 29 17.5 44t44.5 15t45 -15t18 -44v-597q0 -29 -18 -44.5t-45 -15.5t-44.5 15.5z" />
    <glyph glyph-name="m" unicode="m" horiz-adv-x="873" 
d="M768.5 453.5q42.5 -47.5 42.5 -153.5v-246q0 -29 -17.5 -44.5t-45.5 -15.5q-27 0 -44.5 15.5t-17.5 44.5v246q0 55 -19.5 78.5t-59.5 23.5q-49 0 -78 -33.5t-29 -91.5v-223q0 -29 -17.5 -44.5t-44.5 -15.5t-45 15.5t-18 44.5v246q0 55 -19.5 78.5t-59.5 23.5
q-49 0 -77.5 -33.5t-28.5 -91.5v-223q0 -29 -18 -44.5t-45 -15.5t-44.5 15.5t-17.5 44.5v387q0 28 18 43t45 15q26 0 42.5 -14.5t16.5 -41.5v-24q23 40 61.5 61t88.5 21q110 0 147 -92q22 42 65 67t97 25q80 0 122.5 -47.5z" />
    <glyph glyph-name="n" unicode="n" horiz-adv-x="585" 
d="M480 451q43 -50 43 -151v-246q0 -28 -16.5 -44t-45.5 -16t-46 16t-17 44v239q0 57 -21.5 83t-67.5 26q-54 0 -86.5 -34t-32.5 -91v-223q0 -28 -17 -44t-46 -16t-45.5 16t-16.5 44v387q0 26 17 42t46 16q26 0 42.5 -15.5t16.5 -40.5v-27q25 41 67 63t95 22q88 0 131 -50z
" />
    <glyph glyph-name="o" unicode="o" horiz-adv-x="575" 
d="M156.5 23q-56.5 31 -87.5 89t-31 135t31 134.5t87.5 88.5t131.5 31t131.5 -31t87 -88.5t30.5 -134.5t-30.5 -135t-87 -89t-131.5 -31t-131.5 31zM380 129q32 40 32 118q0 77 -32 117.5t-92 40.5t-92.5 -40.5t-32.5 -117.5q0 -78 32 -118t92 -40q61 0 93 40z" />
    <glyph glyph-name="p" unicode="p" horiz-adv-x="601" 
d="M458.5 469q49.5 -32 77 -90.5t27.5 -134.5t-27.5 -133t-76.5 -88t-113 -31q-52 0 -93 22t-63 61v-204q0 -26 -17 -41t-45 -15t-45.5 16t-17.5 42v567q0 27 16.5 43t44.5 16t45 -16t17 -43v-25q22 41 63.5 63.5t94.5 22.5q63 0 112.5 -32zM405 129.5q33 40.5 33 114.5
q0 76 -33 118t-92 42q-60 0 -92.5 -41t-32.5 -117q0 -75 32.5 -116t92.5 -41q59 0 92 40.5z" />
    <glyph glyph-name="q" unicode="q" horiz-adv-x="601" 
d="M520 483q17 -16 17 -43v-567q0 -26 -18 -42t-46 -16t-44.5 15.5t-16.5 40.5v206q-22 -40 -63.5 -62.5t-93.5 -22.5q-64 0 -113 31t-76.5 88t-27.5 133t27.5 134.5t77 90.5t112.5 32q53 0 94.5 -22.5t63.5 -63.5v25q0 27 17 43t45 16t45 -16zM380.5 130q32.5 41 32.5 116
q0 76 -32.5 117t-92.5 41q-59 0 -92 -42t-33 -118q0 -74 33 -114.5t93 -40.5q59 0 91.5 41z" />
    <glyph glyph-name="r" unicode="r" horiz-adv-x="383" 
d="M379 488q15 -13 15 -39q0 -27 -13 -40t-47 -17l-30 -3q-59 -6 -86.5 -40t-27.5 -85v-210q0 -29 -18 -44.5t-45 -15.5t-44.5 15.5t-17.5 44.5v387q0 28 17.5 43t43.5 15t42 -14.5t16 -41.5v-40q19 44 56.5 68t83.5 27l14 1q26 2 41 -11z" />
    <glyph glyph-name="s" unicode="s" horiz-adv-x="485" 
d="M66 35q-32 19 -32 54q0 20 11 32.5t27 12.5q17 0 47 -16q32 -15 58.5 -23t67.5 -8q42 0 65.5 14t23.5 39q0 17 -9.5 27t-34 18.5t-74.5 19.5q-89 18 -127.5 51t-38.5 91q0 44 26 79.5t71.5 55t103.5 19.5q42 0 81 -10.5t70 -30.5q32 -20 32 -53q0 -20 -11 -33.5
t-27 -13.5q-11 0 -21.5 4.5t-26.5 13.5q-29 15 -50 22.5t-52 7.5q-37 0 -58.5 -15t-21.5 -41q0 -25 22 -38t85 -26q67 -14 105 -32t54.5 -45t16.5 -69q0 -68 -56.5 -109t-150.5 -41q-109 0 -176 43z" />
    <glyph glyph-name="t" unicode="t" horiz-adv-x="369" 
d="M369 42q0 -24 -19.5 -36.5t-55.5 -10.5l-27 2q-168 12 -168 180v218h-50q-27 0 -41.5 12t-14.5 35t14.5 35t41.5 12h50v92q0 27 17 43t46 16q28 0 45 -16t17 -43v-92h85q27 0 41.5 -12t14.5 -35t-14.5 -35t-41.5 -12h-85v-227q0 -74 68 -79l27 -2q50 -3 50 -45z" />
    <glyph glyph-name="u" unicode="u" horiz-adv-x="579" 
d="M497 483q17 -16 17 -43v-388q0 -26 -17.5 -42t-45.5 -16q-27 0 -43 15t-16 41v25q-23 -40 -62 -61.5t-88 -21.5q-180 0 -180 202v246q0 27 17 43t45 16q29 0 46 -16t17 -43v-247q0 -52 21 -77t66 -25q52 0 83.5 34.5t31.5 91.5v223q0 27 17 43t45 16q29 0 46 -16z" />
    <glyph glyph-name="v" unicode="v" horiz-adv-x="526" 
d="M427.5 490q13.5 9 29.5 9q23 0 41.5 -15.5t18.5 -38.5q0 -12 -6 -24l-185 -387q-9 -19 -25.5 -29t-36.5 -10q-19 0 -36.5 10t-26.5 29l-186 387q-5 10 -5 23q0 23 19.5 39t44.5 16q36 0 53 -35l140 -309l139 308q8 18 21.5 27z" />
    <glyph glyph-name="w" unicode="w" horiz-adv-x="856" 
d="M746.5 489q13.5 9 29.5 9q23 0 41.5 -15.5t18.5 -38.5q0 -13 -5 -23l-165 -387q-8 -19 -24.5 -29t-36.5 -10q-19 0 -35.5 10t-24.5 29l-119 286l-115 -286q-8 -19 -24.5 -29t-36.5 -10q-19 0 -36 10t-25 29l-164 387q-5 13 -5 22q0 23 20 39.5t44 16.5q17 0 31 -9t21 -27
l118 -305l121 302q8 19 23 28.5t33 9.5t33 -9.5t23 -28.5l122 -303l117 305q7 18 20.5 27z" />
    <glyph glyph-name="x" unicode="x" horiz-adv-x="532" 
d="M507 51q0 -22 -17 -39.5t-40 -17.5q-25 0 -43 21l-141 156l-141 -156q-19 -20 -43 -20q-22 0 -39 17t-17 39q0 23 18 41l146 159l-138 150q-18 18 -18 41t17 39.5t39 16.5q24 0 43 -20l133 -146l133 146q19 20 43 20q23 0 39.5 -16.5t16.5 -39.5t-18 -41l-138 -150
l147 -159q18 -18 18 -41z" />
    <glyph glyph-name="y" unicode="y" horiz-adv-x="526" 
d="M427.5 489.5q13.5 8.5 29.5 8.5q23 0 41.5 -15.5t18.5 -38.5q0 -11 -6 -23l-273 -572q-17 -34 -53 -34q-23 0 -40.5 14.5t-17.5 36.5q0 11 6 25l68 143l-186 387q-5 10 -5 23q0 23 19.5 39t44.5 16q17 0 31 -8.5t22 -26.5l140 -309l139 308q8 18 21.5 26.5z" />
    <glyph glyph-name="z" unicode="z" horiz-adv-x="510" 
d="M485 47q0 -22 -14 -34.5t-42 -12.5h-334q-25 0 -41 16t-16 38q0 23 18 44l257 297h-223q-28 0 -42 12t-14 35t14 35t42 12h323q26 0 41.5 -15.5t15.5 -38.5q0 -24 -17 -44l-258 -297h234q56 0 56 -47z" />
    <glyph glyph-name="braceleft" unicode="{" horiz-adv-x="388" 
d="M374 -98q14 -12 14 -35t-14 -35t-35 -12h-75q-58 0 -89.5 32t-31.5 89v194q0 40 -14 58t-50 21q-23 1 -35.5 14.5t-12.5 34.5t12.5 34t35.5 14q36 3 50 21t14 58v194q0 57 31.5 89t89.5 32h75q21 0 35 -12t14 -35t-14 -35t-35 -12h-32q-21 0 -31.5 -10.5t-10.5 -33.5
v-192q0 -45 -23.5 -75.5t-55.5 -37.5q32 -7 55.5 -37t23.5 -75v-192q0 -23 10.5 -33.5t31.5 -10.5h32q21 0 35 -12z" />
    <glyph glyph-name="bar" unicode="|" horiz-adv-x="279" 
d="M98 -168q-17 17 -17 42v777q0 26 17 42.5t42 16.5t41.5 -17t16.5 -42v-777q0 -26 -16.5 -42.5t-41.5 -16.5t-42 17z" />
    <glyph glyph-name="braceright" unicode="}" horiz-adv-x="388" 
d="M344.5 297q12.5 -13 12.5 -34t-12 -34.5t-36 -14.5q-36 -3 -50 -21t-14 -58v-194q0 -57 -31.5 -89t-89.5 -32h-75q-21 0 -35 12t-14 35t14 35t35 12h32q21 0 31.5 10.5t10.5 33.5v192q0 45 23.5 75t55.5 37q-32 7 -55.5 37.5t-23.5 75.5v192q0 23 -10.5 33.5t-31.5 10.5
h-32q-21 0 -35 12t-14 35t14 35t35 12h75q58 0 89.5 -32t31.5 -89v-194q0 -40 14 -58t50 -21q23 -1 35.5 -14z" />
    <glyph glyph-name="asciitilde" unicode="~" 
d="M350.5 219q-28.5 11 -68.5 31q-34 17 -51 24t-33 7q-31 0 -54 -26q-19 -22 -39 -22q-11 0 -21 7q-17 11 -17 32q0 12 6 22q20 34 50.5 52t66.5 18q31 0 59.5 -11t68.5 -31q31 -15 49.5 -22.5t34.5 -7.5q33 0 54 26q19 21 38 21q11 0 21 -7q9 -5 14 -14t5 -19
q0 -12 -7 -22q-20 -33 -50.5 -51t-66.5 -18q-31 0 -59.5 11z" />
    <glyph glyph-name="uni00A0" unicode="&#xa0;" horiz-adv-x="271" 
 />
    <glyph glyph-name="exclamdown" unicode="&#xa1;" horiz-adv-x="248" 
d="M71 370.5q-21 21.5 -21 53.5t21 53.5t53 21.5t53 -21.5t21 -53.5t-21 -53.5t-53 -21.5t-53 21.5zM68 -164.5q-21 21.5 -16 57.5l34 357q2 19 12.5 29.5t25.5 10.5t25.5 -10.5t12.5 -29.5l35 -357l1 -11q0 -31 -21 -49.5t-53 -18.5q-35 0 -56 21.5z" />
    <glyph glyph-name="cent" unicode="&#xa2;" 
d="M503.5 122q10.5 -14 10.5 -35q0 -31 -31 -52q-49 -32 -117 -40v-63q0 -23 -14 -37.5t-37 -14.5q-22 0 -36 14.5t-14 37.5v66q-85 18 -134 83t-49 163q0 96 49.5 162.5t133.5 86.5v69q0 22 14 36.5t36 14.5q23 0 37 -14t14 -37v-63q69 -8 116 -39q32 -22 32 -53
q0 -22 -11 -35.5t-28 -13.5q-11 0 -21 4.5t-26 13.5q-24 13 -43 20t-44 7q-62 0 -96 -40.5t-34 -116.5q0 -75 33.5 -115.5t95.5 -40.5q25 0 44.5 7.5t43.5 20.5q15 9 26 13.5t22 4.5q17 0 27.5 -14z" />
    <glyph glyph-name="sterling" unicode="&#xa3;" 
d="M578 53q0 -53 -60 -53h-426q-60 0 -60 53q0 51 60 51h34v209h-53q-18 0 -29.5 11.5t-11.5 28.5t11.5 28.5t29.5 11.5h53v124q0 90 58 143.5t157 53.5q58 0 115 -20.5t99 -55.5q13 -10 18 -21.5t5 -26.5q0 -22 -12 -37t-30 -15q-10 0 -20 4t-20 10q-41 29 -77 44t-73 15
q-43 0 -68 -26t-25 -77v-115h139q18 0 30 -11.5t12 -28.5t-12 -28.5t-30 -11.5h-139v-209h265q60 0 60 -51z" />
    <glyph glyph-name="currency" unicode="&#xa4;" 
d="M90 41.5q-8 10.5 -8 23.5q2 11 10 18l40 39q-43 52 -43 128q0 72 41 126l-34 33q-7 7 -10.5 13.5t-3.5 15.5q0 11 9.5 20t21.5 9q8 0 15.5 -6.5t9.5 -8.5l35 -34q53 37 127 37q73 0 128 -37l34 34q16 14 27 14t20 -8.5t10 -19.5q0 -9 -3.5 -15t-10.5 -14l-35 -33
q42 -52 42 -126q0 -73 -43 -128l34 -31q8 -10 11.5 -16.5t4.5 -16.5q-2 -14 -11.5 -21t-22.5 -7q-9 1 -23 15l-37 36q-51 -34 -125 -34q-72 0 -125 34l-34 -33q-9 -10 -15.5 -14t-14.5 -4q-13 1 -21 11.5zM405.5 146.5q38.5 42.5 38.5 103.5q0 38 -16.5 71.5t-49.5 54.5
t-78 21q-46 0 -78 -21t-48.5 -54.5t-16.5 -71.5t16.5 -71.5t49 -54t77.5 -20.5q67 0 105.5 42.5z" />
    <glyph glyph-name="yen" unicode="&#xa5;" 
d="M531 710q23 0 41 -17.5t18 -41.5q0 -20 -15 -38l-177 -217h105q17 0 29 -11t12 -29q0 -17 -12 -28t-29 -11h-139v-74h139q17 0 29 -11t12 -28q0 -18 -12 -29t-29 -11h-139v-105q0 -31 -18 -48t-46 -17t-46.5 17t-18.5 48v105h-138q-17 0 -29 11t-12 29q0 17 12 28t29 11
h138v74h-138q-17 0 -29 11t-12 28q0 18 12 29t29 11h105l-177 217q-15 18 -15 39q0 24 18 41.5t41 17.5q24 0 43 -22l188 -236l187 235q18 22 44 22z" />
    <glyph glyph-name="brokenbar" unicode="&#xa6;" horiz-adv-x="279" 
d="M98 383q-17 17 -17 42v226q0 25 17 42t42 17t41.5 -17t16.5 -42v-226q0 -26 -16.5 -42.5t-41.5 -16.5t-42 17zM98 -168q-17 17 -17 42v226q0 26 17 42.5t42 16.5t41.5 -17t16.5 -42v-226q0 -25 -16.5 -42t-41.5 -17t-42 17z" />
    <glyph glyph-name="section" unicode="&#xa7;" horiz-adv-x="564" 
d="M513 139.5q-16 -34.5 -46 -60.5q23 -38 23 -81q0 -88 -57.5 -136.5t-161.5 -48.5q-113 0 -181 42q-32 20 -32 54q0 20 11 32.5t27 12.5q10 0 22 -4.5t25 -10.5q30 -15 58.5 -23.5t72.5 -8.5t68.5 21.5t24.5 59.5q0 31 -16.5 51t-56.5 39l-118 55q-75 34 -108 76.5
t-33 102.5q0 39 16 74t46 61q-22 35 -22 80q0 85 59.5 135t159.5 50q91 0 155 -41q33 -22 33 -53q0 -20 -11 -33.5t-27 -13.5q-11 0 -21.5 4t-27.5 14q-26 14 -47.5 21.5t-51.5 7.5q-47 0 -73 -20.5t-26 -58.5q0 -31 17 -52t56 -40l117 -55q74 -35 108 -77.5t34 -100.5
q0 -40 -16 -74.5zM403 143q14 25 14 48q0 31 -21.5 56.5t-67.5 49.5l-119 58q-29 15 -48 28q-15 -27 -15 -49q0 -31 22 -56t69 -49l118 -57q25 -12 48 -29z" />
    <glyph glyph-name="dieresis" unicode="&#xa8;" horiz-adv-x="300" 
d="M11 610q-18 17 -18 45t18 45t47 17t47.5 -17t18.5 -45t-18.5 -45t-47.5 -17t-47 17zM195 610q-18 17 -18 45t18 45t47 17q28 0 46.5 -17t18.5 -45t-18 -45t-47 -17t-47 17z" />
    <glyph glyph-name="copyright" unicode="&#xa9;" horiz-adv-x="815" 
d="M226 42.5q-82 47.5 -129 129t-47 181.5t47 181.5t129 128.5t182 47t181.5 -47t128.5 -128.5t47 -181.5t-47 -181.5t-129 -129t-181 -47.5q-100 0 -182 47.5zM561 89.5q68 39.5 106.5 109t38.5 154.5t-38.5 154t-106.5 108.5t-153 39.5t-153.5 -39.5t-107 -108.5
t-38.5 -154t38.5 -154.5t107 -109t153.5 -39.5t153 39.5zM265 195.5q-57 58.5 -57 157.5q0 98 57 156.5t152 58.5q81 0 132 -39q11 -9 15 -17.5t4 -21.5q0 -16 -10.5 -30.5t-27.5 -14.5q-8 0 -16 3t-17 8q-20 11 -36 17t-37 6q-50 0 -75.5 -30.5t-25.5 -95.5
q0 -66 25.5 -96.5t75.5 -30.5q21 0 37 6t36 17q9 5 17 8t16 3q17 0 27.5 -14.5t10.5 -30.5q0 -13 -4 -22t-15 -17q-55 -39 -132 -39q-95 0 -152 58.5z" />
    <glyph glyph-name="ordfeminine" unicode="&#xaa;" horiz-adv-x="336" 
d="M273.5 678q33.5 -32 33.5 -100v-124q0 -26 -14 -38.5t-37 -12.5q-20 0 -34 12.5t-14 38.5v1q-11 -25 -33.5 -38.5t-50.5 -13.5q-44 0 -73.5 28.5t-29.5 65.5q0 45 37 65t129 20h20v14q0 21 -10 29.5t-35 8.5q-31 0 -71 -17q-11 -5 -24 -5q-16 0 -25 11.5t-9 25.5
q0 25 24 36q21 10 52.5 17.5t62.5 7.5q68 0 101.5 -32zM191.5 486q15.5 14 15.5 38v10h-10q-47 0 -64 -8t-17 -24q0 -13 10 -21.5t27 -8.5q23 0 38.5 14z" />
    <glyph glyph-name="guillemotleft" unicode="&#xab;" horiz-adv-x="494" 
d="M53 266q0 18 12 37l78 126q17 27 46 27q19 0 32.5 -12t13.5 -31q0 -11 -6 -25l-58 -122l58 -122q6 -13 6 -24q0 -19 -14 -31.5t-33 -12.5q-28 0 -45 27l-78 126q-12 20 -12 37zM260 266q0 18 12 37l78 126q17 27 46 27q19 0 32.5 -12t13.5 -31q0 -11 -6 -25l-58 -122
l58 -122q6 -13 6 -24q0 -19 -14 -31.5t-33 -12.5q-28 0 -45 27l-78 126q-12 20 -12 37z" />
    <glyph glyph-name="logicalnot" unicode="&#xac;" 
d="M467 153q-12 13 -12 32v159h-355q-19 0 -31.5 12.5t-12.5 31.5t12.5 31t31.5 12h400q19 0 31.5 -12.5t12.5 -31.5v-202q0 -19 -13 -32t-32 -13q-20 0 -32 13z" />
    <glyph glyph-name="uni00AD" unicode="&#xad;" horiz-adv-x="434" 
d="M70.5 231q-14.5 13 -14.5 36t14.5 36.5t43.5 13.5h206q29 0 43.5 -13.5t14.5 -36.5t-14.5 -36t-43.5 -13h-206q-29 0 -43.5 13z" />
    <glyph glyph-name="registered" unicode="&#xae;" horiz-adv-x="815" 
d="M589.5 663q81.5 -47 128.5 -128.5t47 -181.5t-47 -181.5t-129 -129t-181 -47.5q-100 0 -182 47.5t-129 129t-47 181.5t47 181.5t129 128.5t182 47t181.5 -47zM561 89.5q68 39.5 106.5 109t38.5 154.5t-38.5 154t-106.5 108.5t-153 39.5t-153.5 -39.5t-107 -108.5
t-38.5 -154t38.5 -154.5t107 -109t153.5 -39.5t153 39.5zM589 213q12 -15 12 -31q0 -19 -17 -32t-39 -13q-31 0 -48 25l-79 115q-8 12 -16.5 17.5t-21.5 5.5h-27v-107q0 -27 -15 -41.5t-39 -14.5q-25 0 -40.5 14.5t-15.5 41.5v319q0 25 13 38.5t38 13.5h142q74 0 114 -34.5
t40 -95.5q0 -48 -26 -81t-73 -44q18 -4 32.5 -14.5t29.5 -30.5zM421 381q34 0 48.5 11.5t14.5 37.5q0 28 -14.5 39t-48.5 11h-69v-99h69z" />
    <glyph glyph-name="macron" unicode="&#xaf;" horiz-adv-x="300" 
d="M-3.5 624.5q-12.5 10.5 -12.5 29.5q0 20 12.5 30.5t32.5 10.5h242q20 0 32.5 -10.5t12.5 -30.5q0 -19 -12.5 -29.5t-32.5 -10.5h-242q-20 0 -32.5 10.5z" />
    <glyph glyph-name="degree" unicode="&#xb0;" horiz-adv-x="367" 
d="M107 432.5q-34 19.5 -54 53t-20 75.5t20 76t54 53.5t76 19.5t76.5 -19.5t54.5 -53.5t20 -76t-20 -75.5t-54.5 -53t-76.5 -19.5t-76 19.5zM239 503.5q22 22.5 22 57.5q0 36 -22 58.5t-56 22.5q-33 0 -55 -22.5t-22 -58.5q0 -35 22 -57.5t55 -22.5q34 0 56 22.5z" />
    <glyph glyph-name="plusminus" unicode="&#xb1;" 
d="M68.5 301.5q-12.5 12.5 -12.5 31.5t12.5 31.5t31.5 12.5h156v109q0 19 13 31.5t32 12.5q18 0 30.5 -12.5t12.5 -31.5v-109h156q19 0 31.5 -12.5t12.5 -31.5t-12.5 -31.5t-31.5 -12.5h-156v-109q0 -19 -13 -32t-32 -13q-18 0 -30.5 13t-12.5 32v109h-156q-19 0 -31.5 12.5
zM537.5 75.5q12.5 -12.5 12.5 -31.5t-12.5 -31.5t-31.5 -12.5h-400q-19 0 -31.5 12.5t-12.5 31.5t12.5 31.5t31.5 12.5h400q19 0 31.5 -12.5z" />
    <glyph glyph-name="uni00B2" unicode="&#xb2;" horiz-adv-x="380" 
d="M343 357.5q13 -10.5 13 -31.5q0 -44 -53 -44h-218q-22 0 -35.5 12.5t-13.5 31.5q0 24 22 46l126 135q40 43 40 76q0 21 -12 32t-35 11q-30 0 -74 -26q-9 -4 -17 -7t-18 -3q-16 0 -26 13.5t-10 27.5q0 13 4 22t16 17q27 18 63 28.5t70 10.5q67 0 107.5 -33t40.5 -86
q0 -36 -15 -65.5t-53 -67.5l-88 -89h126q27 0 40 -10.5z" />
    <glyph glyph-name="uni00B3" unicode="&#xb3;" horiz-adv-x="380" 
d="M323.5 463q20.5 -26 20.5 -65q0 -53 -42 -86.5t-120 -33.5q-38 0 -75.5 10t-62.5 30q-10 9 -14 18t-4 21q0 14 10 28t26 14q11 0 21 -5t13 -7q20 -12 39 -19t43 -7q64 0 64 46q0 24 -16.5 35t-49.5 11h-37q-18 0 -29 12.5t-11 29.5t11 29.5t29 12.5h26q33 0 49 11t16 35
q0 21 -13.5 32t-38.5 11q-31 0 -75 -26q-9 -4 -17.5 -7t-17.5 -3q-17 0 -26.5 14t-9.5 31q0 22 20 35q26 18 61.5 28.5t70.5 10.5q70 0 109.5 -33t39.5 -83q0 -33 -17.5 -57.5t-48.5 -35.5q36 -11 56.5 -37z" />
    <glyph glyph-name="acute" unicode="&#xb4;" horiz-adv-x="300" 
d="M153 548q-14 0 -23.5 9.5t-9.5 22.5q0 11 8 22l97 129q23 30 53 30q22 0 37.5 -15.5t15.5 -36.5q0 -28 -27 -48l-129 -105q-11 -8 -22 -8z" />
    <glyph glyph-name="uni00B5" unicode="&#xb5;" horiz-adv-x="579" 
d="M497 483.5q17 -15.5 17 -43.5v-388q0 -26 -17.5 -42t-45.5 -16q-26 0 -42.5 15.5t-16.5 40.5v25q-23 -40 -62 -61.5t-88 -21.5q-31 0 -55 9v-128q0 -26 -17.5 -42t-46.5 -16q-28 0 -44.5 15.5t-16.5 40.5v569q0 28 16.5 43.5t45.5 15.5t46 -15.5t17 -43.5v-247
q0 -53 21.5 -77.5t65.5 -24.5q50 0 82.5 34t32.5 92v223q0 28 16.5 43.5t45.5 15.5t46 -15.5z" />
    <glyph glyph-name="paragraph" unicode="&#xb6;" horiz-adv-x="612" 
d="M261 -172.5q-13 12.5 -13 32.5v422q-63 0 -111 26.5t-74.5 75t-26.5 110.5t26.5 110t75.5 74.5t113 26.5h240q20 0 32.5 -12.5t12.5 -32.5v-800q0 -19 -12.5 -32t-31.5 -13t-31.5 13t-12.5 32v766h-112v-766q0 -20 -12 -32.5t-31 -12.5t-32 12.5z" />
    <glyph glyph-name="periodcentered" unicode="&#xb7;" horiz-adv-x="248" 
d="M71 213.5q-21 21.5 -21 53.5t21 53.5t53 21.5t53 -21.5t21 -53.5t-21 -53.5t-53 -21.5t-53 21.5z" />
    <glyph glyph-name="cedilla" unicode="&#xb8;" horiz-adv-x="300" 
d="M247.5 -58.5q21.5 -18.5 21.5 -50.5q0 -38 -33.5 -62t-94.5 -24q-42 0 -70 10q-9 4 -14 11t-5 16q0 14 8.5 22.5t22.5 4.5q34 -8 56 -8q50 0 50 30q0 10 -7 16t-20 6q-10 0 -26 -3.5t-20 -3.5q-9 0 -14.5 5.5t-4.5 14.5l11 94h72l-8 -62q16 2 23 2q31 0 52.5 -18.5z" />
    <glyph glyph-name="uni00B9" unicode="&#xb9;" horiz-adv-x="380" 
d="M354 326q0 -44 -54 -44h-168q-53 0 -53 44q0 42 53 42h30v220l-35 -20q-12 -6 -22 -6q-17 0 -29.5 14t-12.5 32q0 25 22 37l82 46q26 15 52 15q24 0 38 -14t14 -39v-285h29q54 0 54 -42z" />
    <glyph glyph-name="ordmasculine" unicode="&#xba;" horiz-adv-x="362" 
d="M60 446.5q-42 43.5 -42 110.5t42 110t121 43q78 0 120.5 -43.5t42.5 -109.5q0 -67 -42.5 -110.5t-120.5 -43.5q-79 0 -121 43.5zM226 504q16 19 16 53q0 35 -15.5 53t-45.5 18q-29 0 -44 -18t-15 -53q0 -34 15.5 -53t43.5 -19q29 0 45 19z" />
    <glyph glyph-name="guillemotright" unicode="&#xbb;" horiz-adv-x="489" 
d="M99 76q-19 0 -33 12.5t-14 31.5q0 11 6 24l59 122l-59 122q-6 14 -6 25q0 19 14 31t33 12q29 0 45 -27l74 -126q11 -18 11 -37t-11 -37l-74 -126q-16 -27 -45 -27zM306 76q-19 0 -33 12.5t-14 31.5q0 11 6 24l59 122l-59 122q-6 14 -6 25q0 19 14 31t33 12q29 0 45 -27
l74 -126q11 -18 11 -37t-11 -37l-74 -126q-16 -27 -45 -27z" />
    <glyph glyph-name="onequarter" unicode="&#xbc;" horiz-adv-x="950" 
d="M354 326q0 -44 -54 -44h-168q-53 0 -53 44q0 42 53 42h30v220l-35 -20q-12 -6 -22 -6q-17 0 -29.5 14t-12.5 32q0 25 22 37l82 46q26 15 52 15q24 0 38 -14t14 -39v-285h29q54 0 54 -42zM286 -18q-18 0 -31.5 13.5t-13.5 33.5q0 16 10 33l365 629q18 32 48 32
q18 0 31.5 -13.5t13.5 -33.5q0 -16 -10 -33l-365 -629q-18 -32 -48 -32zM930 140q12 -10 12 -29t-12.5 -29.5t-34.5 -10.5h-18v-26q0 -24 -13.5 -36.5t-35.5 -12.5t-35 12.5t-13 36.5v26h-146q-22 0 -35 13.5t-13 33.5t14 40l176 244q18 24 48 24q22 0 37.5 -14.5
t15.5 -40.5v-221h18q23 0 35 -10zM680 150h100v137z" />
    <glyph glyph-name="onehalf" unicode="&#xbd;" horiz-adv-x="950" 
d="M354 326q0 -44 -54 -44h-168q-53 0 -53 44q0 42 53 42h30v220l-35 -20q-12 -6 -22 -6q-17 0 -29.5 14t-12.5 32q0 25 22 37l82 46q26 15 52 15q24 0 38 -14t14 -39v-285h29q54 0 54 -42zM286 -18q-18 0 -31.5 13.5t-13.5 33.5q0 16 10 33l365 629q18 32 48 32
q18 0 31.5 -13.5t13.5 -33.5q0 -16 -10 -33l-365 -629q-18 -32 -48 -32zM913 75.5q13 -10.5 13 -31.5q0 -44 -53 -44h-218q-22 0 -35.5 12.5t-13.5 31.5q0 24 22 46l126 135q40 43 40 76q0 21 -12 32t-35 11q-30 0 -74 -26q-9 -4 -17 -7t-18 -3q-16 0 -26 13.5t-10 27.5
q0 13 4 22t16 17q27 18 63 28.5t70 10.5q67 0 107.5 -33t40.5 -86q0 -36 -15 -65.5t-53 -67.5l-88 -89h126q27 0 40 -10.5z" />
    <glyph glyph-name="threequarters" unicode="&#xbe;" horiz-adv-x="950" 
d="M323.5 463q20.5 -26 20.5 -65q0 -53 -42 -86.5t-120 -33.5q-38 0 -75.5 10t-62.5 30q-10 9 -14 18t-4 21q0 14 10 28t26 14q11 0 21 -5t13 -7q20 -12 39 -19t43 -7q64 0 64 46q0 24 -16.5 35t-49.5 11h-37q-18 0 -29 12.5t-11 29.5t11 29.5t29 12.5h26q33 0 49 11t16 35
q0 21 -13.5 32t-38.5 11q-31 0 -75 -26q-9 -4 -17.5 -7t-17.5 -3q-17 0 -26.5 14t-9.5 31q0 22 20 35q26 18 61.5 28.5t70.5 10.5q70 0 109.5 -33t39.5 -83q0 -33 -17.5 -57.5t-48.5 -35.5q36 -11 56.5 -37zM286 -18q-18 0 -31.5 13.5t-13.5 33.5q0 16 10 33l365 629
q18 32 48 32q18 0 31.5 -13.5t13.5 -33.5q0 -16 -10 -33l-365 -629q-18 -32 -48 -32zM930 140q12 -10 12 -29t-12.5 -29.5t-34.5 -10.5h-18v-26q0 -24 -13.5 -36.5t-35.5 -12.5t-35 12.5t-13 36.5v26h-146q-22 0 -35 13.5t-13 33.5t14 40l176 244q18 24 48 24
q22 0 37.5 -14.5t15.5 -40.5v-221h18q23 0 35 -10zM680 150h100v137z" />
    <glyph glyph-name="questiondown" unicode="&#xbf;" horiz-adv-x="459" 
d="M185 370.5q-21 21.5 -21 53.5t21 53.5t53 21.5t53 -21.5t21 -53.5t-21 -53.5t-53 -21.5t-53 21.5zM115 -167.5q-47 20.5 -73.5 57.5t-26.5 84q0 35 13 62.5t32 47.5t51 48q41 35 62.5 61t26.5 63q3 16 13.5 25t25.5 9q18 0 28.5 -12t10.5 -34q0 -56 -20.5 -90t-58.5 -71
q-29 -28 -43 -48.5t-14 -49.5q0 -32 24 -51t66 -19q37 0 71 15t76 43q27 15 41 15q17 0 29 -15.5t12 -37.5q0 -15 -5 -26t-18 -21q-41 -36 -98 -56t-117 -20q-61 0 -108 20.5z" />
    <glyph glyph-name="Agrave" unicode="&#xc0;" horiz-adv-x="742" 
d="M721 51q0 -23 -18.5 -39t-42.5 -16q-16 0 -30 8.5t-22 26.5l-60 134h-352l-60 -134q-8 -18 -22 -26.5t-31 -8.5q-23 0 -42 16t-19 39q0 13 6 26l276 593q9 20 27.5 30.5t39.5 10.5t39.5 -10.5t27.5 -30.5l277 -593q6 -13 6 -26zM240 265h264l-132 297zM208 877
q0 19 14 33.5t34 14.5q23 0 44 -21l91 -94q10 -10 10 -22q0 -11 -8.5 -19.5t-21.5 -8.5q-9 0 -16 4l-113 66q-34 18 -34 47z" />
    <glyph glyph-name="Aacute" unicode="&#xc1;" horiz-adv-x="742" 
d="M721 51q0 -23 -18.5 -39t-42.5 -16q-16 0 -30 8.5t-22 26.5l-60 134h-352l-60 -134q-8 -18 -22 -26.5t-31 -8.5q-23 0 -42 16t-19 39q0 13 6 26l276 593q9 20 27.5 30.5t39.5 10.5t39.5 -10.5t27.5 -30.5l277 -593q6 -13 6 -26zM240 265h264l-132 297zM371 760
q-13 0 -22 8.5t-9 19.5t11 22l91 94q19 20 43 20q20 0 34.5 -14.5t14.5 -33.5q0 -13 -8.5 -25t-25.5 -21l-113 -66q-8 -4 -16 -4z" />
    <glyph glyph-name="Acircumflex" unicode="&#xc2;" horiz-adv-x="742" 
d="M721 51q0 -23 -18.5 -39t-42.5 -16q-16 0 -30 8.5t-22 26.5l-60 134h-352l-60 -134q-8 -18 -22 -26.5t-31 -8.5q-23 0 -42 16t-19 39q0 13 6 26l276 593q9 20 27.5 30.5t39.5 10.5t39.5 -10.5t27.5 -30.5l277 -593q6 -13 6 -26zM240 265h264l-132 297zM265 760
q-16 0 -27.5 11.5t-11.5 26.5q0 17 16 30l83 77q21 18 46 18t46 -18l83 -77q15 -14 15 -31q0 -15 -11 -26t-27 -11q-17 0 -31 14l-75 77l-75 -77q-14 -14 -31 -14z" />
    <glyph glyph-name="Atilde" unicode="&#xc3;" horiz-adv-x="742" 
d="M721 51q0 -23 -18.5 -39t-42.5 -16q-16 0 -30 8.5t-22 26.5l-60 134h-352l-60 -134q-8 -18 -22 -26.5t-31 -8.5q-23 0 -42 16t-19 39q0 13 6 26l276 593q9 20 27.5 30.5t39.5 10.5t39.5 -10.5t27.5 -30.5l277 -593q6 -13 6 -26zM240 265h264l-132 297zM409.5 788.5
q-17.5 4.5 -43.5 13.5q-18 6 -35.5 11t-31.5 5q-13 0 -20.5 -4.5t-17.5 -14.5q-9 -9 -14 -12.5t-14 -3.5q-13 0 -20.5 8.5t-7.5 22.5q0 19 12 39.5t33.5 34.5t47.5 14q17 0 34.5 -4.5t43.5 -13.5q18 -6 35.5 -11t31.5 -5q13 0 20.5 4.5t17.5 14.5q9 9 14 12.5t14 3.5
q13 0 20.5 -8t7.5 -22q0 -19 -12 -40t-33.5 -35t-47.5 -14q-17 0 -34.5 4.5z" />
    <glyph glyph-name="Adieresis" unicode="&#xc4;" horiz-adv-x="742" 
d="M721 51q0 -23 -18.5 -39t-42.5 -16q-16 0 -30 8.5t-22 26.5l-60 134h-352l-60 -134q-8 -18 -22 -26.5t-31 -8.5q-23 0 -42 16t-19 39q0 13 6 26l276 593q9 20 27.5 30.5t39.5 10.5t39.5 -10.5t27.5 -30.5l277 -593q6 -13 6 -26zM240 265h264l-132 297zM232 797.5
q-18 17.5 -18 45.5t18 45t47 17t47.5 -17t18.5 -45t-18.5 -45.5t-47.5 -17.5t-47 17.5zM416 797.5q-18 17.5 -18 45.5t18 45t47 17q28 0 46.5 -17t18.5 -45t-18 -45.5t-47 -17.5t-47 17.5z" />
    <glyph glyph-name="Aring" unicode="&#xc5;" horiz-adv-x="742" 
d="M721 51q0 -24 -18 -39.5t-42 -15.5q-17 0 -31 8.5t-22 26.5l-60 134h-352l-60 -134q-8 -18 -22 -26.5t-31 -8.5q-24 0 -42.5 15.5t-18.5 38.5q0 14 6 27l285 612q-22 14 -35 37t-13 50q0 44 31 74t76 30q44 0 75 -30t31 -74q0 -27 -13 -50t-35 -37l285 -612q6 -13 6 -26z
M339 809.5q-13 -13.5 -13 -33.5t13 -33.5t33 -13.5q19 0 32 13.5t13 33.5t-13 33.5t-32 13.5q-20 0 -33 -13.5zM240 265h264l-132 297z" />
    <glyph glyph-name="AE" unicode="&#xc6;" horiz-adv-x="997" 
d="M952 88.5q16 -13.5 16 -38.5t-16 -37.5t-45 -12.5h-290q-23 0 -38.5 11t-20.5 29l-27 125h-325l-82 -134q-11 -19 -27.5 -28t-34.5 -9q-23 0 -39 13.5t-16 34.5q0 17 11 35l377 593q11 17 30 26t43 9h439q29 0 45 -12.5t16 -37.5t-16 -38.5t-45 -13.5h-355l43 -194h292
q29 0 45 -13t16 -38t-16 -37.5t-45 -12.5h-269l45 -206h244q29 0 45 -13.5zM268 265h241l-62 290z" />
    <glyph glyph-name="Ccedilla" unicode="&#xc7;" horiz-adv-x="678" 
d="M629 152q12 -15 12 -37q0 -15 -5 -26.5t-18 -21.5q-85 -69 -202 -75l-4 -34q16 2 23 2q31 0 52.5 -18.5t21.5 -50.5q0 -38 -33.5 -62t-94.5 -24q-42 0 -70 10q-9 4 -14 11t-5 16q0 14 8.5 22.5t22.5 4.5q34 -8 56 -8q50 0 50 30q0 10 -7 16t-20 6q-10 0 -26 -3.5
t-20 -3.5q-9 0 -14.5 5.5t-4.5 14.5l8 67q-89 10 -154.5 56.5t-101 124t-35.5 179.5q0 110 41 191.5t117.5 125.5t178.5 44q66 0 124 -19.5t103 -56.5q13 -10 18 -21t5 -27q0 -22 -12 -37t-29 -15q-20 0 -41 14q-43 32 -80 44.5t-82 12.5q-104 0 -157.5 -65t-53.5 -191
q0 -127 53.5 -192t157.5 -65q43 0 79.5 13t82.5 44q10 6 20 10t21 4q17 0 29 -15z" />
    <glyph glyph-name="Egrave" unicode="&#xc8;" horiz-adv-x="589" 
d="M92.5 16q-16.5 16 -16.5 45v583q0 29 16.5 45t45.5 16h361q29 0 45 -13t16 -37q0 -25 -16 -38.5t-45 -13.5h-297v-194h277q29 0 45 -13t16 -38q0 -24 -16 -37t-45 -13h-277v-206h297q29 0 45 -13.5t16 -38.5q0 -24 -16 -37t-45 -13h-361q-29 0 -45.5 16zM165 877
q0 19 14 33.5t34 14.5q23 0 44 -21l91 -94q10 -10 10 -22q0 -11 -8.5 -19.5t-21.5 -8.5q-9 0 -16 4l-113 66q-34 18 -34 47z" />
    <glyph glyph-name="Eacute" unicode="&#xc9;" horiz-adv-x="589" 
d="M92.5 16q-16.5 16 -16.5 45v583q0 29 16.5 45t45.5 16h361q29 0 45 -13t16 -37q0 -25 -16 -38.5t-45 -13.5h-297v-194h277q29 0 45 -13t16 -38q0 -24 -16 -37t-45 -13h-277v-206h297q29 0 45 -13.5t16 -38.5q0 -24 -16 -37t-45 -13h-361q-29 0 -45.5 16zM328 760
q-13 0 -22 8.5t-9 19.5t11 22l91 94q19 20 43 20q20 0 34.5 -14.5t14.5 -33.5q0 -13 -8.5 -25t-25.5 -21l-113 -66q-8 -4 -16 -4z" />
    <glyph glyph-name="Ecircumflex" unicode="&#xca;" horiz-adv-x="589" 
d="M92.5 16q-16.5 16 -16.5 45v583q0 29 16.5 45t45.5 16h361q29 0 45 -13t16 -37q0 -25 -16 -38.5t-45 -13.5h-297v-194h277q29 0 45 -13t16 -38q0 -24 -16 -37t-45 -13h-277v-206h297q29 0 45 -13.5t16 -38.5q0 -24 -16 -37t-45 -13h-361q-29 0 -45.5 16zM222 760
q-16 0 -27.5 11.5t-11.5 26.5q0 17 16 30l83 77q21 18 46 18t46 -18l83 -77q15 -14 15 -31q0 -15 -11 -26t-27 -11q-17 0 -31 14l-75 77l-75 -77q-14 -14 -31 -14z" />
    <glyph glyph-name="Edieresis" unicode="&#xcb;" horiz-adv-x="589" 
d="M92.5 16q-16.5 16 -16.5 45v583q0 29 16.5 45t45.5 16h361q29 0 45 -13t16 -37q0 -25 -16 -38.5t-45 -13.5h-297v-194h277q29 0 45 -13t16 -38q0 -24 -16 -37t-45 -13h-277v-206h297q29 0 45 -13.5t16 -38.5q0 -24 -16 -37t-45 -13h-361q-29 0 -45.5 16zM189 797.5
q-18 17.5 -18 45.5t18 45t47 17t47.5 -17t18.5 -45t-18.5 -45.5t-47.5 -17.5t-47 17.5zM373 797.5q-18 17.5 -18 45.5t18 45t47 17q28 0 46.5 -17t18.5 -45t-18 -45.5t-47 -17.5t-47 17.5z" />
    <glyph glyph-name="Igrave" unicode="&#xcc;" horiz-adv-x="281" 
d="M93.5 12q-17.5 18 -17.5 47v587q0 29 17.5 46.5t46.5 17.5q30 0 47.5 -17.5t17.5 -46.5v-587q0 -29 -17.5 -47t-47.5 -18q-29 0 -46.5 18zM-23 877q0 19 14 33.5t34 14.5q23 0 44 -21l91 -94q10 -10 10 -22q0 -11 -8.5 -19.5t-21.5 -8.5q-9 0 -16 4l-113 66
q-34 18 -34 47z" />
    <glyph glyph-name="Iacute" unicode="&#xcd;" horiz-adv-x="281" 
d="M93.5 12q-17.5 18 -17.5 47v587q0 29 17.5 46.5t46.5 17.5q30 0 47.5 -17.5t17.5 -46.5v-587q0 -29 -17.5 -47t-47.5 -18q-29 0 -46.5 18zM140 760q-13 0 -22 8.5t-9 19.5t11 22l91 94q19 20 43 20q20 0 34.5 -14.5t14.5 -33.5q0 -13 -8.5 -25t-25.5 -21l-113 -66
q-8 -4 -16 -4z" />
    <glyph glyph-name="Icircumflex" unicode="&#xce;" horiz-adv-x="281" 
d="M93.5 12q-17.5 18 -17.5 47v587q0 29 17.5 46.5t46.5 17.5q30 0 47.5 -17.5t17.5 -46.5v-587q0 -29 -17.5 -47t-47.5 -18q-29 0 -46.5 18zM34 760q-16 0 -27.5 11.5t-11.5 26.5q0 17 16 30l83 77q21 18 46 18t46 -18l83 -77q15 -14 15 -31q0 -15 -11 -26t-27 -11
q-17 0 -31 14l-75 77l-75 -77q-14 -14 -31 -14z" />
    <glyph glyph-name="Idieresis" unicode="&#xcf;" horiz-adv-x="281" 
d="M93.5 12q-17.5 18 -17.5 47v587q0 29 17.5 46.5t46.5 17.5q30 0 47.5 -17.5t17.5 -46.5v-587q0 -29 -17.5 -47t-47.5 -18q-29 0 -46.5 18zM1 797.5q-18 17.5 -18 45.5t18 45t47 17t47.5 -17t18.5 -45t-18.5 -45.5t-47.5 -17.5t-47 17.5zM185 797.5q-18 17.5 -18 45.5
t18 45t47 17q28 0 46.5 -17t18.5 -45t-18 -45.5t-47 -17.5t-47 17.5z" />
    <glyph glyph-name="Eth" unicode="&#xd0;" horiz-adv-x="778" 
d="M628 612.5q96 -92.5 96 -259.5q0 -168 -95.5 -260.5t-268.5 -92.5h-199q-28 0 -44.5 16.5t-16.5 44.5v246h-42q-28 0 -43 13t-15 37q0 23 15 36t43 13h42v238q0 29 16 45t45 16h199q172 0 268 -92.5zM595 353q0 247 -243 247h-124v-194h143q28 0 42.5 -13t14.5 -36
q0 -24 -14.5 -37t-42.5 -13h-143v-202h124q243 0 243 248z" />
    <glyph glyph-name="Ntilde" unicode="&#xd1;" horiz-adv-x="747" 
d="M654.5 692.5q16.5 -17.5 16.5 -46.5v-587q0 -29 -17 -47t-44 -18q-32 0 -49 23l-365 475v-433q0 -29 -16 -47t-44 -18t-44 18t-16 47v587q0 29 17 46.5t45 17.5q31 0 48 -23l364 -473v432q0 29 16.5 46.5t43.5 17.5q28 0 44.5 -17.5zM411.5 788.5q-17.5 4.5 -43.5 13.5
q-18 6 -35.5 11t-31.5 5q-13 0 -20.5 -4.5t-17.5 -14.5q-9 -9 -14 -12.5t-14 -3.5q-13 0 -20.5 8.5t-7.5 22.5q0 19 12 39.5t33.5 34.5t47.5 14q17 0 34.5 -4.5t43.5 -13.5q18 -6 35.5 -11t31.5 -5q13 0 20.5 4.5t17.5 14.5q9 9 14 12.5t14 3.5q13 0 20.5 -8t7.5 -22
q0 -19 -12 -40t-33.5 -35t-47.5 -14q-17 0 -34.5 4.5z" />
    <glyph glyph-name="Ograve" unicode="&#xd2;" horiz-adv-x="779" 
d="M211.5 35q-75.5 44 -116.5 126t-41 192t40.5 191.5t116.5 125.5t179 44t178.5 -44t116 -125.5t40.5 -191.5t-41 -192t-116.5 -126t-177.5 -44q-103 0 -178.5 44zM541.5 161q54.5 67 54.5 192t-54.5 191.5t-151.5 66.5q-98 0 -152.5 -66.5t-54.5 -191.5t54.5 -192
t152.5 -67q97 0 151.5 67zM226 877q0 19 14 33.5t34 14.5q23 0 44 -21l91 -94q10 -10 10 -22q0 -11 -8.5 -19.5t-21.5 -8.5q-9 0 -16 4l-113 66q-34 18 -34 47z" />
    <glyph glyph-name="Oacute" unicode="&#xd3;" horiz-adv-x="779" 
d="M211.5 35q-75.5 44 -116.5 126t-41 192t40.5 191.5t116.5 125.5t179 44t178.5 -44t116 -125.5t40.5 -191.5t-41 -192t-116.5 -126t-177.5 -44q-103 0 -178.5 44zM541.5 161q54.5 67 54.5 192t-54.5 191.5t-151.5 66.5q-98 0 -152.5 -66.5t-54.5 -191.5t54.5 -192
t152.5 -67q97 0 151.5 67zM389 760q-13 0 -22 8.5t-9 19.5t11 22l91 94q19 20 43 20q20 0 34.5 -14.5t14.5 -33.5q0 -13 -8.5 -25t-25.5 -21l-113 -66q-8 -4 -16 -4z" />
    <glyph glyph-name="Ocircumflex" unicode="&#xd4;" horiz-adv-x="779" 
d="M211.5 35q-75.5 44 -116.5 126t-41 192t40.5 191.5t116.5 125.5t179 44t178.5 -44t116 -125.5t40.5 -191.5t-41 -192t-116.5 -126t-177.5 -44q-103 0 -178.5 44zM541.5 161q54.5 67 54.5 192t-54.5 191.5t-151.5 66.5q-98 0 -152.5 -66.5t-54.5 -191.5t54.5 -192
t152.5 -67q97 0 151.5 67zM283 760q-16 0 -27.5 11.5t-11.5 26.5q0 17 16 30l83 77q21 18 46 18t46 -18l83 -77q15 -14 15 -31q0 -15 -11 -26t-27 -11q-17 0 -31 14l-75 77l-75 -77q-14 -14 -31 -14z" />
    <glyph glyph-name="Otilde" unicode="&#xd5;" horiz-adv-x="779" 
d="M211.5 35q-75.5 44 -116.5 126t-41 192t40.5 191.5t116.5 125.5t179 44t178.5 -44t116 -125.5t40.5 -191.5t-41 -192t-116.5 -126t-177.5 -44q-103 0 -178.5 44zM541.5 161q54.5 67 54.5 192t-54.5 191.5t-151.5 66.5q-98 0 -152.5 -66.5t-54.5 -191.5t54.5 -192
t152.5 -67q97 0 151.5 67zM427.5 788.5q-17.5 4.5 -43.5 13.5q-18 6 -35.5 11t-31.5 5q-13 0 -20.5 -4.5t-17.5 -14.5q-9 -9 -14 -12.5t-14 -3.5q-13 0 -20.5 8.5t-7.5 22.5q0 19 12 39.5t33.5 34.5t47.5 14q17 0 34.5 -4.5t43.5 -13.5q18 -6 35.5 -11t31.5 -5
q13 0 20.5 4.5t17.5 14.5q9 9 14 12.5t14 3.5q13 0 20.5 -8t7.5 -22q0 -19 -12 -40t-33.5 -35t-47.5 -14q-17 0 -34.5 4.5z" />
    <glyph glyph-name="Odieresis" unicode="&#xd6;" horiz-adv-x="779" 
d="M211.5 35q-75.5 44 -116.5 126t-41 192t40.5 191.5t116.5 125.5t179 44t178.5 -44t116 -125.5t40.5 -191.5t-41 -192t-116.5 -126t-177.5 -44q-103 0 -178.5 44zM541.5 161q54.5 67 54.5 192t-54.5 191.5t-151.5 66.5q-98 0 -152.5 -66.5t-54.5 -191.5t54.5 -192
t152.5 -67q97 0 151.5 67zM250 797.5q-18 17.5 -18 45.5t18 45t47 17t47.5 -17t18.5 -45t-18.5 -45.5t-47.5 -17.5t-47 17.5zM434 797.5q-18 17.5 -18 45.5t18 45t47 17q28 0 46.5 -17t18.5 -45t-18 -45.5t-47 -17.5t-47 17.5z" />
    <glyph glyph-name="multiply" unicode="&#xd7;" 
d="M502 146q14 -14 14 -32t-14 -32q-12 -12 -29 -12q-19 0 -33 14l-140 140l-140 -140q-12 -13 -32 -13q-19 0 -32 13q-12 12 -12 29q0 19 14 33l140 140l-140 140q-13 13 -13 32t13 31q12 13 30 13t32 -14l140 -140l140 140q14 14 32 14t32 -14q12 -12 12 -29
q0 -19 -14 -33l-140 -140z" />
    <glyph glyph-name="Oslash" unicode="&#xd8;" horiz-adv-x="779" 
d="M696 518.5q29 -72.5 29 -165.5q0 -110 -41 -192t-116.5 -126t-177.5 -44q-77 0 -140 26l-20 -34q-9 -16 -22 -24t-27 -8q-19 0 -32 13t-13 33q0 17 10 34l21 36q-55 48 -84 120.5t-29 165.5q0 110 40.5 191.5t116.5 125.5t179 44q75 0 139 -25l20 34q19 32 48 32
q19 0 32.5 -13t13.5 -34q0 -17 -10 -34l-21 -35q55 -48 84 -120.5zM229 173l246 422q-36 16 -85 16q-98 0 -152.5 -66.5t-54.5 -191.5q0 -114 46 -180zM541.5 161q54.5 67 54.5 192q0 113 -45 180l-247 -423q36 -16 86 -16q97 0 151.5 67z" />
    <glyph glyph-name="Ugrave" unicode="&#xd9;" horiz-adv-x="733" 
d="M147 66q-75 75 -75 219v361q0 29 17 46.5t46 17.5t46 -17.5t17 -46.5v-368q0 -91 43 -137.5t126 -46.5q82 0 125 47t43 137v368q0 29 17 46.5t46 17.5t46 -17.5t17 -46.5v-361q0 -143 -75 -218.5t-219 -75.5q-145 0 -220 75zM204 877q0 19 14 33.5t34 14.5q23 0 44 -21
l91 -94q10 -10 10 -22q0 -11 -8.5 -19.5t-21.5 -8.5q-9 0 -16 4l-113 66q-34 18 -34 47z" />
    <glyph glyph-name="Uacute" unicode="&#xda;" horiz-adv-x="733" 
d="M147 66q-75 75 -75 219v361q0 29 17 46.5t46 17.5t46 -17.5t17 -46.5v-368q0 -91 43 -137.5t126 -46.5q82 0 125 47t43 137v368q0 29 17 46.5t46 17.5t46 -17.5t17 -46.5v-361q0 -143 -75 -218.5t-219 -75.5q-145 0 -220 75zM367 760q-13 0 -22 8.5t-9 19.5t11 22l91 94
q19 20 43 20q20 0 34.5 -14.5t14.5 -33.5q0 -13 -8.5 -25t-25.5 -21l-113 -66q-8 -4 -16 -4z" />
    <glyph glyph-name="Ucircumflex" unicode="&#xdb;" horiz-adv-x="733" 
d="M147 66q-75 75 -75 219v361q0 29 17 46.5t46 17.5t46 -17.5t17 -46.5v-368q0 -91 43 -137.5t126 -46.5q82 0 125 47t43 137v368q0 29 17 46.5t46 17.5t46 -17.5t17 -46.5v-361q0 -143 -75 -218.5t-219 -75.5q-145 0 -220 75zM261 760q-16 0 -27.5 11.5t-11.5 26.5
q0 17 16 30l83 77q21 18 46 18t46 -18l83 -77q15 -14 15 -31q0 -15 -11 -26t-27 -11q-17 0 -31 14l-75 77l-75 -77q-14 -14 -31 -14z" />
    <glyph glyph-name="Udieresis" unicode="&#xdc;" horiz-adv-x="733" 
d="M147 66q-75 75 -75 219v361q0 29 17 46.5t46 17.5t46 -17.5t17 -46.5v-368q0 -91 43 -137.5t126 -46.5q82 0 125 47t43 137v368q0 29 17 46.5t46 17.5t46 -17.5t17 -46.5v-361q0 -143 -75 -218.5t-219 -75.5q-145 0 -220 75zM228 797.5q-18 17.5 -18 45.5t18 45t47 17
t47.5 -17t18.5 -45t-18.5 -45.5t-47.5 -17.5t-47 17.5zM412 797.5q-18 17.5 -18 45.5t18 45t47 17q28 0 46.5 -17t18.5 -45t-18 -45.5t-47 -17.5t-47 17.5z" />
    <glyph glyph-name="Yacute" unicode="&#xdd;" horiz-adv-x="623" 
d="M559 710q23 0 41 -17.5t18 -41.5q0 -20 -15 -38l-227 -277v-277q0 -31 -18 -48t-46 -17q-29 0 -47 17t-18 48v277l-227 277q-15 18 -15 38q0 24 18 41.5t41 17.5q25 0 43 -22l205 -254l204 254q18 22 43 22zM311 760q-13 0 -22 8.5t-9 19.5t11 22l91 94q19 20 43 20
q20 0 34.5 -14.5t14.5 -33.5q0 -13 -8.5 -25t-25.5 -21l-113 -66q-8 -4 -16 -4z" />
    <glyph glyph-name="Thorn" unicode="&#xde;" horiz-adv-x="660" 
d="M561 505.5q62 -52.5 62 -146.5q0 -95 -62.5 -148t-173.5 -53h-184v-99q0 -29 -17.5 -47t-46.5 -18t-46 17.5t-17 47.5v587q0 29 17 46.5t46 17.5t46.5 -17.5t17.5 -46.5v-88h184q112 0 174 -52.5zM468.5 282.5q32.5 24.5 32.5 76.5q0 51 -32.5 75t-100.5 24h-165v-200
h165q68 0 100.5 24.5z" />
    <glyph glyph-name="germandbls" unicode="&#xdf;" horiz-adv-x="655" 
d="M349 3.5q-42 11.5 -74 31.5q-32 19 -32 54q0 20 11 32.5t27 12.5q11 0 23.5 -5t25.5 -12q26 -14 50 -22t57 -8q38 0 58.5 14t20.5 39q0 26 -22.5 40t-70.5 30q-46 15 -75 29t-49.5 41.5t-20.5 70.5q0 37 18 65t51 61q26 27 38.5 45t12.5 39q0 28 -21 43.5t-60 15.5
q-61 0 -94 -38t-33 -108v-420q0 -28 -17 -44t-46 -16t-45.5 16t-16.5 44v402q0 123 67 189.5t190 66.5q91 0 142 -37.5t51 -104.5q0 -39 -18.5 -67.5t-53.5 -63.5q-25 -24 -37 -40.5t-12 -34.5q0 -24 21.5 -37.5t67.5 -28.5q47 -16 76 -31t50.5 -43.5t21.5 -74.5
q0 -71 -54 -114t-143 -43q-43 0 -85 11.5z" />
    <glyph glyph-name="agrave" unicode="&#xe0;" horiz-adv-x="540" 
d="M428.5 450.5q49.5 -50.5 49.5 -153.5v-244q0 -27 -16 -42.5t-44 -15.5q-26 0 -42.5 16t-16.5 42v22q-17 -39 -53.5 -61t-84.5 -22q-49 0 -89 20t-63 55t-23 78q0 54 27.5 85t89.5 45t171 14h25v23q0 49 -21 71.5t-68 22.5q-29 0 -59 -8.5t-71 -24.5q-26 -13 -38 -13
q-18 0 -29.5 13t-11.5 34q0 17 8.5 29.5t28.5 23.5q35 19 83.5 30t95.5 11q102 0 151.5 -50.5zM327.5 115.5q31.5 33.5 31.5 86.5v21h-18q-67 0 -104 -6t-53 -21t-16 -41q0 -32 22.5 -52.5t55.5 -20.5q50 0 81.5 33.5zM96 709q0 21 16 36.5t38 15.5q29 0 52 -30l97 -129
q8 -9 8 -22t-9.5 -22.5t-22.5 -9.5q-12 0 -23 8l-129 105q-27 20 -27 48z" />
    <glyph glyph-name="aacute" unicode="&#xe1;" horiz-adv-x="540" 
d="M428.5 450.5q49.5 -50.5 49.5 -153.5v-244q0 -27 -16 -42.5t-44 -15.5q-26 0 -42.5 16t-16.5 42v22q-17 -39 -53.5 -61t-84.5 -22q-49 0 -89 20t-63 55t-23 78q0 54 27.5 85t89.5 45t171 14h25v23q0 49 -21 71.5t-68 22.5q-29 0 -59 -8.5t-71 -24.5q-26 -13 -38 -13
q-18 0 -29.5 13t-11.5 34q0 17 8.5 29.5t28.5 23.5q35 19 83.5 30t95.5 11q102 0 151.5 -50.5zM327.5 115.5q31.5 33.5 31.5 86.5v21h-18q-67 0 -104 -6t-53 -21t-16 -41q0 -32 22.5 -52.5t55.5 -20.5q50 0 81.5 33.5zM280 548q-14 0 -23.5 9.5t-9.5 22.5q0 11 8 22l97 129
q23 30 53 30q22 0 37.5 -15.5t15.5 -36.5q0 -28 -27 -48l-129 -105q-11 -8 -22 -8z" />
    <glyph glyph-name="acircumflex" unicode="&#xe2;" horiz-adv-x="540" 
d="M428.5 450.5q49.5 -50.5 49.5 -153.5v-244q0 -27 -16 -42.5t-44 -15.5q-26 0 -42.5 16t-16.5 42v22q-17 -39 -53.5 -61t-84.5 -22q-49 0 -89 20t-63 55t-23 78q0 54 27.5 85t89.5 45t171 14h25v23q0 49 -21 71.5t-68 22.5q-29 0 -59 -8.5t-71 -24.5q-26 -13 -38 -13
q-18 0 -29.5 13t-11.5 34q0 17 8.5 29.5t28.5 23.5q35 19 83.5 30t95.5 11q102 0 151.5 -50.5zM327.5 115.5q31.5 33.5 31.5 86.5v21h-18q-67 0 -104 -6t-53 -21t-16 -41q0 -32 22.5 -52.5t55.5 -20.5q50 0 81.5 33.5zM171 548q-16 0 -28.5 12t-12.5 28q0 13 9 26l88 119
q12 15 23 22t27 7q17 0 28 -7t22 -23l88 -118q9 -12 9 -26q0 -16 -12.5 -28t-28.5 -12q-21 0 -35 21l-71 110l-71 -110q-14 -21 -35 -21z" />
    <glyph glyph-name="atilde" unicode="&#xe3;" horiz-adv-x="540" 
d="M428.5 450.5q49.5 -50.5 49.5 -153.5v-244q0 -27 -16 -42.5t-44 -15.5q-26 0 -42.5 16t-16.5 42v22q-17 -39 -53.5 -61t-84.5 -22q-49 0 -89 20t-63 55t-23 78q0 54 27.5 85t89.5 45t171 14h25v23q0 49 -21 71.5t-68 22.5q-29 0 -59 -8.5t-71 -24.5q-26 -13 -38 -13
q-18 0 -29.5 13t-11.5 34q0 17 8.5 29.5t28.5 23.5q35 19 83.5 30t95.5 11q102 0 151.5 -50.5zM327.5 115.5q31.5 33.5 31.5 86.5v21h-18q-67 0 -104 -6t-53 -21t-16 -41q0 -32 22.5 -52.5t55.5 -20.5q50 0 81.5 33.5zM314.5 592q-17.5 8 -44.5 24q-22 13 -35 19t-24 6
q-16 0 -25.5 -8t-19.5 -23q-8 -12 -14 -17.5t-15 -5.5q-11 0 -18.5 9.5t-7.5 24.5q0 20 12 44.5t33.5 42t47.5 17.5q18 0 35.5 -8t44.5 -24q22 -13 35 -19t24 -6q16 0 25.5 8t19.5 23q8 12 14 17.5t15 5.5q12 0 19 -9.5t7 -24.5q0 -20 -12 -44.5t-33.5 -42t-47.5 -17.5
q-18 0 -35.5 8z" />
    <glyph glyph-name="adieresis" unicode="&#xe4;" horiz-adv-x="540" 
d="M428.5 450.5q49.5 -50.5 49.5 -153.5v-244q0 -27 -16 -42.5t-44 -15.5q-26 0 -42.5 16t-16.5 42v22q-17 -39 -53.5 -61t-84.5 -22q-49 0 -89 20t-63 55t-23 78q0 54 27.5 85t89.5 45t171 14h25v23q0 49 -21 71.5t-68 22.5q-29 0 -59 -8.5t-71 -24.5q-26 -13 -38 -13
q-18 0 -29.5 13t-11.5 34q0 17 8.5 29.5t28.5 23.5q35 19 83.5 30t95.5 11q102 0 151.5 -50.5zM327.5 115.5q31.5 33.5 31.5 86.5v21h-18q-67 0 -104 -6t-53 -21t-16 -41q0 -32 22.5 -52.5t55.5 -20.5q50 0 81.5 33.5zM138 610q-18 17 -18 45t18 45t47 17t47.5 -17t18.5 -45
t-18.5 -45t-47.5 -17t-47 17zM322 610q-18 17 -18 45t18 45t47 17q28 0 46.5 -17t18.5 -45t-18 -45t-47 -17t-47 17z" />
    <glyph glyph-name="aring" unicode="&#xe5;" horiz-adv-x="540" 
d="M428.5 450.5q49.5 -50.5 49.5 -153.5v-244q0 -27 -16 -42.5t-44 -15.5q-26 0 -42.5 16t-16.5 42v22q-17 -39 -53.5 -61t-84.5 -22q-49 0 -89 20t-63 55t-23 78q0 54 27.5 85t89.5 45t171 14h25v23q0 49 -21 71.5t-68 22.5q-29 0 -59 -8.5t-71 -24.5q-26 -13 -38 -13
q-18 0 -29.5 13t-11.5 34q0 17 8.5 29.5t28.5 23.5q35 19 83.5 30t95.5 11q102 0 151.5 -50.5zM327.5 115.5q31.5 33.5 31.5 86.5v21h-18q-67 0 -104 -6t-53 -21t-16 -41q0 -32 22.5 -52.5t55.5 -20.5q50 0 81.5 33.5zM202 582q-31 30 -31 74t31 74t75 30t75 -30t31 -74
t-31 -74t-75 -30t-75 30zM309 622.5q13 13.5 13 33.5t-13 33.5t-32 13.5t-32 -13.5t-13 -33.5t13 -33.5t32 -13.5t32 13.5z" />
    <glyph glyph-name="ae" unicode="&#xe6;" horiz-adv-x="843" 
d="M792.5 121q10.5 -13 10.5 -35q0 -32 -37 -52q-34 -19 -76.5 -30.5t-79.5 -11.5q-71 0 -122 27.5t-80 79.5q-22 -52 -66.5 -79.5t-105.5 -27.5q-54 0 -97.5 19.5t-68 54.5t-24.5 79q0 54 27.5 85t89.5 45t171 14h25v22q0 50 -21.5 72.5t-67.5 22.5q-41 0 -70 -8.5
t-58 -23.5q-12 -6 -23 -10t-20 -4q-17 0 -27.5 13t-10.5 34q0 32 37 53q36 20 82 30.5t95 10.5q116 0 160 -71q30 34 72 52.5t92 18.5q61 0 108 -29.5t73 -83t26 -123.5q0 -43 -38 -43h-288q6 -68 38.5 -101t93.5 -33q31 0 54.5 8t53.5 22q30 16 45 16q17 0 27.5 -13z
M516.5 380.5q-30.5 -32.5 -36.5 -91.5h220q-3 60 -29.5 92t-73.5 32q-50 0 -80.5 -32.5zM328 116.5q31 34.5 31 86.5v20h-18q-67 0 -104 -6t-53 -21t-16 -41q0 -33 23.5 -53t59.5 -20q46 0 77 34.5z" />
    <glyph glyph-name="ccedilla" unicode="&#xe7;" horiz-adv-x="488" 
d="M459 122q11 -14 11 -35q0 -17 -7.5 -29.5t-24.5 -22.5q-54 -36 -131 -42l-4 -35q16 2 23 2q31 0 52.5 -18.5t21.5 -50.5q0 -38 -33.5 -62t-94.5 -24q-42 0 -70 10q-9 4 -14 11t-5 16q0 14 8.5 22.5t22.5 4.5q34 -8 56 -8q50 0 50 30q0 10 -7 16t-20 6q-10 0 -26 -3.5
t-20 -3.5q-9 0 -14.5 5.5t-4.5 14.5l8 69q-92 14 -145 80.5t-53 168.5q0 76 31.5 134.5t88.5 90.5t131 32q39 0 78.5 -11t69.5 -30q32 -21 32 -53q0 -22 -10.5 -35.5t-27.5 -13.5q-11 0 -23 5t-24 12q-22 13 -42 20.5t-46 7.5q-62 0 -95.5 -40.5t-33.5 -116.5
q0 -75 33.5 -115.5t95.5 -40.5q25 0 44.5 7.5t43.5 20.5q15 9 26 13.5t22 4.5q16 0 27 -14z" />
    <glyph glyph-name="egrave" unicode="&#xe8;" horiz-adv-x="531" 
d="M479.5 121q10.5 -13 10.5 -35q0 -31 -37 -52q-34 -19 -77 -30.5t-82 -11.5q-118 0 -187 68t-69 186q0 75 30 133t84.5 90t123.5 32q66 0 115 -29t76 -82t27 -125q0 -43 -38 -43h-295q6 -69 39 -101.5t96 -32.5q32 0 56.5 8t55.5 22q30 16 44 16q17 0 27.5 -13zM197.5 381
q-30.5 -32 -36.5 -92h226q-2 61 -30 92.5t-78 31.5q-51 0 -81.5 -32zM95 709q0 21 16 36.5t38 15.5q29 0 52 -30l97 -129q8 -9 8 -22t-9.5 -22.5t-22.5 -9.5q-12 0 -23 8l-129 105q-27 20 -27 48z" />
    <glyph glyph-name="eacute" unicode="&#xe9;" horiz-adv-x="531" 
d="M479.5 121q10.5 -13 10.5 -35q0 -31 -37 -52q-34 -19 -77 -30.5t-82 -11.5q-118 0 -187 68t-69 186q0 75 30 133t84.5 90t123.5 32q66 0 115 -29t76 -82t27 -125q0 -43 -38 -43h-295q6 -69 39 -101.5t96 -32.5q32 0 56.5 8t55.5 22q30 16 44 16q17 0 27.5 -13zM197.5 381
q-30.5 -32 -36.5 -92h226q-2 61 -30 92.5t-78 31.5q-51 0 -81.5 -32zM279 548q-14 0 -23.5 9.5t-9.5 22.5q0 11 8 22l97 129q23 30 53 30q22 0 37.5 -15.5t15.5 -36.5q0 -28 -27 -48l-129 -105q-11 -8 -22 -8z" />
    <glyph glyph-name="ecircumflex" unicode="&#xea;" horiz-adv-x="531" 
d="M479.5 121q10.5 -13 10.5 -35q0 -31 -37 -52q-34 -19 -77 -30.5t-82 -11.5q-118 0 -187 68t-69 186q0 75 30 133t84.5 90t123.5 32q66 0 115 -29t76 -82t27 -125q0 -43 -38 -43h-295q6 -69 39 -101.5t96 -32.5q32 0 56.5 8t55.5 22q30 16 44 16q17 0 27.5 -13zM197.5 381
q-30.5 -32 -36.5 -92h226q-2 61 -30 92.5t-78 31.5q-51 0 -81.5 -32zM170 548q-16 0 -28.5 12t-12.5 28q0 13 9 26l88 119q12 15 23 22t27 7q17 0 28 -7t22 -23l88 -118q9 -12 9 -26q0 -16 -12.5 -28t-28.5 -12q-21 0 -35 21l-71 110l-71 -110q-14 -21 -35 -21z" />
    <glyph glyph-name="edieresis" unicode="&#xeb;" horiz-adv-x="531" 
d="M479.5 121q10.5 -13 10.5 -35q0 -31 -37 -52q-34 -19 -77 -30.5t-82 -11.5q-118 0 -187 68t-69 186q0 75 30 133t84.5 90t123.5 32q66 0 115 -29t76 -82t27 -125q0 -43 -38 -43h-295q6 -69 39 -101.5t96 -32.5q32 0 56.5 8t55.5 22q30 16 44 16q17 0 27.5 -13zM197.5 381
q-30.5 -32 -36.5 -92h226q-2 61 -30 92.5t-78 31.5q-51 0 -81.5 -32zM137 610q-18 17 -18 45t18 45t47 17t47.5 -17t18.5 -45t-18.5 -45t-47.5 -17t-47 17zM321 610q-18 17 -18 45t18 45t47 17q28 0 46.5 -17t18.5 -45t-18 -45t-47 -17t-47 17z" />
    <glyph glyph-name="igrave" unicode="&#xec;" horiz-adv-x="254" 
d="M82.5 9.5q-17.5 15.5 -17.5 44.5v386q0 29 17.5 44t44.5 15t45 -15t18 -44v-386q0 -29 -18 -44.5t-45 -15.5t-44.5 15.5zM-54 709q0 21 16 36.5t38 15.5q29 0 52 -30l97 -129q8 -9 8 -22t-9.5 -22.5t-22.5 -9.5q-12 0 -23 8l-129 105q-27 20 -27 48z" />
    <glyph glyph-name="iacute" unicode="&#xed;" horiz-adv-x="254" 
d="M82.5 9.5q-17.5 15.5 -17.5 44.5v386q0 29 17.5 44t44.5 15t45 -15t18 -44v-386q0 -29 -18 -44.5t-45 -15.5t-44.5 15.5zM130 548q-14 0 -23.5 9.5t-9.5 22.5q0 11 8 22l97 129q23 30 53 30q22 0 37.5 -15.5t15.5 -36.5q0 -28 -27 -48l-129 -105q-11 -8 -22 -8z" />
    <glyph glyph-name="icircumflex" unicode="&#xee;" horiz-adv-x="254" 
d="M82.5 9.5q-17.5 15.5 -17.5 44.5v386q0 29 17.5 44t44.5 15t45 -15t18 -44v-386q0 -29 -18 -44.5t-45 -15.5t-44.5 15.5zM21 548q-16 0 -28.5 12t-12.5 28q0 13 9 26l88 119q12 15 23 22t27 7q17 0 28 -7t22 -23l88 -118q9 -12 9 -26q0 -16 -12.5 -28t-28.5 -12
q-21 0 -35 21l-71 110l-71 -110q-14 -21 -35 -21z" />
    <glyph glyph-name="idieresis" unicode="&#xef;" horiz-adv-x="254" 
d="M82.5 9.5q-17.5 15.5 -17.5 44.5v386q0 29 17.5 44t44.5 15t45 -15t18 -44v-386q0 -29 -18 -44.5t-45 -15.5t-44.5 15.5zM-12 610q-18 17 -18 45t18 45t47 17t47.5 -17t18.5 -45t-18.5 -45t-47.5 -17t-47 17zM172 610q-18 17 -18 45t18 45t47 17q28 0 46.5 -17t18.5 -45
t-18 -45t-47 -17t-47 17z" />
    <glyph glyph-name="eth" unicode="&#xf0;" horiz-adv-x="581" 
d="M515.5 431.5q27.5 -69.5 27.5 -145.5q0 -141 -67.5 -217.5t-192.5 -76.5q-72 0 -128 29t-86.5 82t-30.5 122q0 67 30 119.5t83.5 81.5t121.5 29q86 0 135 -46q-24 65 -79 117l-128 -39q-10 -2 -13 -2q-15 0 -24.5 10.5t-9.5 23.5q0 12 7.5 22t21.5 14l79 24
q-33 21 -74 40q-34 16 -34 45q0 19 14.5 33t37.5 14q14 0 29 -6q83 -32 149 -89l106 32q10 2 13 2q16 0 25.5 -10t9.5 -24q0 -12 -7.5 -22t-22.5 -14l-68 -21q48 -58 75.5 -127.5zM379.5 124.5q32.5 35.5 32.5 100.5t-31.5 100t-92.5 35q-60 0 -92.5 -34.5t-32.5 -100.5
q0 -67 32 -101.5t92 -34.5t92.5 35.5z" />
    <glyph glyph-name="ntilde" unicode="&#xf1;" horiz-adv-x="585" 
d="M480 451q43 -50 43 -151v-246q0 -28 -16.5 -44t-45.5 -16t-46 16t-17 44v239q0 57 -21.5 83t-67.5 26q-54 0 -86.5 -34t-32.5 -91v-223q0 -28 -17 -44t-46 -16t-45.5 16t-16.5 44v387q0 26 17 42t46 16q26 0 42.5 -15.5t16.5 -40.5v-27q25 41 67 63t95 22q88 0 131 -50z
M331.5 592q-17.5 8 -44.5 24q-22 13 -35 19t-24 6q-16 0 -25.5 -8t-19.5 -23q-8 -12 -14 -17.5t-15 -5.5q-11 0 -18.5 9.5t-7.5 24.5q0 20 12 44.5t33.5 42t47.5 17.5q18 0 35.5 -8t44.5 -24q22 -13 35 -19t24 -6q16 0 25.5 8t19.5 23q8 12 14 17.5t15 5.5q12 0 19 -9.5
t7 -24.5q0 -20 -12 -44.5t-33.5 -42t-47.5 -17.5q-18 0 -35.5 8z" />
    <glyph glyph-name="ograve" unicode="&#xf2;" horiz-adv-x="575" 
d="M156.5 23q-56.5 31 -87.5 89t-31 135t31 134.5t87.5 88.5t131.5 31t131.5 -31t87 -88.5t30.5 -134.5t-30.5 -135t-87 -89t-131.5 -31t-131.5 31zM380 129q32 40 32 118q0 77 -32 117.5t-92 40.5t-92.5 -40.5t-32.5 -117.5q0 -78 32 -118t92 -40q61 0 93 40zM107 709
q0 21 16 36.5t38 15.5q29 0 52 -30l97 -129q8 -9 8 -22t-9.5 -22.5t-22.5 -9.5q-12 0 -23 8l-129 105q-27 20 -27 48z" />
    <glyph glyph-name="oacute" unicode="&#xf3;" horiz-adv-x="575" 
d="M156.5 23q-56.5 31 -87.5 89t-31 135t31 134.5t87.5 88.5t131.5 31t131.5 -31t87 -88.5t30.5 -134.5t-30.5 -135t-87 -89t-131.5 -31t-131.5 31zM380 129q32 40 32 118q0 77 -32 117.5t-92 40.5t-92.5 -40.5t-32.5 -117.5q0 -78 32 -118t92 -40q61 0 93 40zM291 548
q-14 0 -23.5 9.5t-9.5 22.5q0 11 8 22l97 129q23 30 53 30q22 0 37.5 -15.5t15.5 -36.5q0 -28 -27 -48l-129 -105q-11 -8 -22 -8z" />
    <glyph glyph-name="ocircumflex" unicode="&#xf4;" horiz-adv-x="575" 
d="M156.5 23q-56.5 31 -87.5 89t-31 135t31 134.5t87.5 88.5t131.5 31t131.5 -31t87 -88.5t30.5 -134.5t-30.5 -135t-87 -89t-131.5 -31t-131.5 31zM380 129q32 40 32 118q0 77 -32 117.5t-92 40.5t-92.5 -40.5t-32.5 -117.5q0 -78 32 -118t92 -40q61 0 93 40zM182 548
q-16 0 -28.5 12t-12.5 28q0 13 9 26l88 119q12 15 23 22t27 7q17 0 28 -7t22 -23l88 -118q9 -12 9 -26q0 -16 -12.5 -28t-28.5 -12q-21 0 -35 21l-71 110l-71 -110q-14 -21 -35 -21z" />
    <glyph glyph-name="otilde" unicode="&#xf5;" horiz-adv-x="575" 
d="M156.5 23q-56.5 31 -87.5 89t-31 135t31 134.5t87.5 88.5t131.5 31t131.5 -31t87 -88.5t30.5 -134.5t-30.5 -135t-87 -89t-131.5 -31t-131.5 31zM380 129q32 40 32 118q0 77 -32 117.5t-92 40.5t-92.5 -40.5t-32.5 -117.5q0 -78 32 -118t92 -40q61 0 93 40zM325.5 592
q-17.5 8 -44.5 24q-22 13 -35 19t-24 6q-16 0 -25.5 -8t-19.5 -23q-8 -12 -14 -17.5t-15 -5.5q-11 0 -18.5 9.5t-7.5 24.5q0 20 12 44.5t33.5 42t47.5 17.5q18 0 35.5 -8t44.5 -24q22 -13 35 -19t24 -6q16 0 25.5 8t19.5 23q8 12 14 17.5t15 5.5q12 0 19 -9.5t7 -24.5
q0 -20 -12 -44.5t-33.5 -42t-47.5 -17.5q-18 0 -35.5 8z" />
    <glyph glyph-name="odieresis" unicode="&#xf6;" horiz-adv-x="575" 
d="M156.5 23q-56.5 31 -87.5 89t-31 135t31 134.5t87.5 88.5t131.5 31t131.5 -31t87 -88.5t30.5 -134.5t-30.5 -135t-87 -89t-131.5 -31t-131.5 31zM380 129q32 40 32 118q0 77 -32 117.5t-92 40.5t-92.5 -40.5t-32.5 -117.5q0 -78 32 -118t92 -40q61 0 93 40zM149 610
q-18 17 -18 45t18 45t47 17t47.5 -17t18.5 -45t-18.5 -45t-47.5 -17t-47 17zM333 610q-18 17 -18 45t18 45t47 17q28 0 46.5 -17t18.5 -45t-18 -45t-47 -17t-47 17z" />
    <glyph glyph-name="divide" unicode="&#xf7;" 
d="M261.5 443.5q-15.5 16.5 -15.5 40.5t15.5 40t39.5 16q23 0 39 -16.5t16 -39.5q0 -24 -16 -40.5t-39 -16.5q-24 0 -39.5 16.5zM74.5 254.5q-12.5 12.5 -12.5 31.5t12.5 31.5t31.5 12.5h400q19 0 31.5 -13t12.5 -32q0 -18 -12.5 -30.5t-31.5 -12.5h-400q-19 0 -31.5 12.5z
M261.5 49q-15.5 16 -15.5 40t15.5 40t39.5 16q23 0 39 -16t16 -40t-16 -40t-39 -16q-24 0 -39.5 16z" />
    <glyph glyph-name="oslash" unicode="&#xf8;" horiz-adv-x="575" 
d="M514 365.5q23 -52.5 23 -118.5q0 -77 -30.5 -135t-87 -89t-131.5 -31q-55 0 -97 16l-19 -33q-13 -20 -34 -20q-15 0 -26 9.5t-11 23.5q0 9 6 20l20 35q-43 34 -66 86t-23 118q0 77 31 134.5t87.5 88.5t131.5 31q55 0 97 -16l19 34q11 20 33 20q15 0 26.5 -9.5t11.5 -24.5
q0 -9 -6 -20l-20 -34q42 -33 65 -85.5zM184 141l150 258q-20 7 -46 7q-62 0 -94.5 -40.5t-32.5 -118.5q0 -66 23 -106zM414 247q0 66 -23 104l-149 -256q21 -6 45 -6q127 0 127 158z" />
    <glyph glyph-name="ugrave" unicode="&#xf9;" horiz-adv-x="579" 
d="M497 483q17 -16 17 -43v-388q0 -26 -17.5 -42t-45.5 -16q-27 0 -43 15t-16 41v25q-23 -40 -62 -61.5t-88 -21.5q-180 0 -180 202v246q0 27 17 43t45 16q29 0 46 -16t17 -43v-247q0 -52 21 -77t66 -25q52 0 83.5 34.5t31.5 91.5v223q0 27 17 43t45 16q29 0 46 -16z
M108 709q0 21 16 36.5t38 15.5q29 0 52 -30l97 -129q8 -9 8 -22t-9.5 -22.5t-22.5 -9.5q-12 0 -23 8l-129 105q-27 20 -27 48z" />
    <glyph glyph-name="uacute" unicode="&#xfa;" horiz-adv-x="579" 
d="M497 483q17 -16 17 -43v-388q0 -26 -17.5 -42t-45.5 -16q-27 0 -43 15t-16 41v25q-23 -40 -62 -61.5t-88 -21.5q-180 0 -180 202v246q0 27 17 43t45 16q29 0 46 -16t17 -43v-247q0 -52 21 -77t66 -25q52 0 83.5 34.5t31.5 91.5v223q0 27 17 43t45 16q29 0 46 -16z
M292 548q-14 0 -23.5 9.5t-9.5 22.5q0 11 8 22l97 129q23 30 53 30q22 0 37.5 -15.5t15.5 -36.5q0 -28 -27 -48l-129 -105q-11 -8 -22 -8z" />
    <glyph glyph-name="ucircumflex" unicode="&#xfb;" horiz-adv-x="579" 
d="M497 483q17 -16 17 -43v-388q0 -26 -17.5 -42t-45.5 -16q-27 0 -43 15t-16 41v25q-23 -40 -62 -61.5t-88 -21.5q-180 0 -180 202v246q0 27 17 43t45 16q29 0 46 -16t17 -43v-247q0 -52 21 -77t66 -25q52 0 83.5 34.5t31.5 91.5v223q0 27 17 43t45 16q29 0 46 -16z
M183 548q-16 0 -28.5 12t-12.5 28q0 13 9 26l88 119q12 15 23 22t27 7q17 0 28 -7t22 -23l88 -118q9 -12 9 -26q0 -16 -12.5 -28t-28.5 -12q-21 0 -35 21l-71 110l-71 -110q-14 -21 -35 -21z" />
    <glyph glyph-name="udieresis" unicode="&#xfc;" horiz-adv-x="579" 
d="M497 483q17 -16 17 -43v-388q0 -26 -17.5 -42t-45.5 -16q-27 0 -43 15t-16 41v25q-23 -40 -62 -61.5t-88 -21.5q-180 0 -180 202v246q0 27 17 43t45 16q29 0 46 -16t17 -43v-247q0 -52 21 -77t66 -25q52 0 83.5 34.5t31.5 91.5v223q0 27 17 43t45 16q29 0 46 -16z
M150 610q-18 17 -18 45t18 45t47 17t47.5 -17t18.5 -45t-18.5 -45t-47.5 -17t-47 17zM334 610q-18 17 -18 45t18 45t47 17q28 0 46.5 -17t18.5 -45t-18 -45t-47 -17t-47 17z" />
    <glyph glyph-name="yacute" unicode="&#xfd;" horiz-adv-x="526" 
d="M427.5 489.5q13.5 8.5 29.5 8.5q23 0 41.5 -15.5t18.5 -38.5q0 -11 -6 -23l-273 -572q-17 -34 -53 -34q-23 0 -40.5 14.5t-17.5 36.5q0 11 6 25l68 143l-186 387q-5 10 -5 23q0 23 19.5 39t44.5 16q17 0 31 -8.5t22 -26.5l140 -309l139 308q8 18 21.5 26.5zM267 548
q-14 0 -23.5 9.5t-9.5 22.5q0 11 8 22l97 129q23 30 53 30q22 0 37.5 -15.5t15.5 -36.5q0 -28 -27 -48l-129 -105q-11 -8 -22 -8z" />
    <glyph glyph-name="thorn" unicode="&#xfe;" horiz-adv-x="601" 
d="M458.5 469q49.5 -32 77 -90.5t27.5 -134.5q0 -75 -27.5 -132.5t-77 -88.5t-112.5 -31q-52 0 -93 22t-63 61v-204q0 -25 -17 -40.5t-45 -15.5q-29 0 -46 16t-17 42v779q0 26 17 42t46 16q28 0 45 -15.5t17 -40.5v-236q22 40 63 61.5t93 21.5q63 0 112.5 -32zM405.5 129.5
q32.5 40.5 32.5 114.5q0 75 -33 117.5t-92 42.5q-60 0 -92.5 -41t-32.5 -117q0 -75 32.5 -116t92.5 -41t92.5 40.5z" />
    <glyph glyph-name="ydieresis" unicode="&#xff;" horiz-adv-x="526" 
d="M427.5 489.5q13.5 8.5 29.5 8.5q23 0 41.5 -15.5t18.5 -38.5q0 -11 -6 -23l-273 -572q-17 -34 -53 -34q-23 0 -40.5 14.5t-17.5 36.5q0 11 6 25l68 143l-186 387q-5 10 -5 23q0 23 19.5 39t44.5 16q17 0 31 -8.5t22 -26.5l140 -309l139 308q8 18 21.5 26.5zM125 610
q-18 17 -18 45t18 45t47 17t47.5 -17t18.5 -45t-18.5 -45t-47.5 -17t-47 17zM309 610q-18 17 -18 45t18 45t47 17q28 0 46.5 -17t18.5 -45t-18 -45t-47 -17t-47 17z" />
    <glyph glyph-name="Amacron" unicode="&#x100;" horiz-adv-x="742" 
d="M721 51q0 -23 -18.5 -39t-42.5 -16q-16 0 -30 8.5t-22 26.5l-60 134h-352l-60 -134q-8 -18 -22 -26.5t-31 -8.5q-23 0 -42 16t-19 39q0 13 6 26l276 593q9 20 27.5 30.5t39.5 10.5t39.5 -10.5t27.5 -30.5l277 -593q6 -13 6 -26zM240 265h264l-132 297zM217.5 812.5
q-12.5 10.5 -12.5 29.5q0 20 12.5 30.5t32.5 10.5h242q20 0 32.5 -10.5t12.5 -30.5q0 -19 -12.5 -29.5t-32.5 -10.5h-242q-20 0 -32.5 10.5z" />
    <glyph glyph-name="amacron" unicode="&#x101;" horiz-adv-x="540" 
d="M428.5 450.5q49.5 -50.5 49.5 -153.5v-244q0 -27 -16 -42.5t-44 -15.5q-26 0 -42.5 16t-16.5 42v22q-17 -39 -53.5 -61t-84.5 -22q-49 0 -89 20t-63 55t-23 78q0 54 27.5 85t89.5 45t171 14h25v23q0 49 -21 71.5t-68 22.5q-29 0 -59 -8.5t-71 -24.5q-26 -13 -38 -13
q-18 0 -29.5 13t-11.5 34q0 17 8.5 29.5t28.5 23.5q35 19 83.5 30t95.5 11q102 0 151.5 -50.5zM327.5 115.5q31.5 33.5 31.5 86.5v21h-18q-67 0 -104 -6t-53 -21t-16 -41q0 -32 22.5 -52.5t55.5 -20.5q50 0 81.5 33.5zM123.5 624.5q-12.5 10.5 -12.5 29.5q0 20 12.5 30.5
t32.5 10.5h242q20 0 32.5 -10.5t12.5 -30.5q0 -19 -12.5 -29.5t-32.5 -10.5h-242q-20 0 -32.5 10.5z" />
    <glyph glyph-name="Abreve" unicode="&#x102;" horiz-adv-x="742" 
d="M721 51q0 -23 -18.5 -39t-42.5 -16q-16 0 -30 8.5t-22 26.5l-60 134h-352l-60 -134q-8 -18 -22 -26.5t-31 -8.5q-23 0 -42 16t-19 39q0 13 6 26l276 593q9 20 27.5 30.5t39.5 10.5t39.5 -10.5t27.5 -30.5l277 -593q6 -13 6 -26zM240 265h264l-132 297zM272 796
q-43 21 -63 58q-6 12 -6 23q0 15 10 24t25 9q18 0 34 -16q34 -41 99 -41t99 41q16 16 35 16q15 0 24.5 -9t9.5 -24q0 -11 -6 -23q-20 -37 -63 -58t-99 -21t-99 21z" />
    <glyph glyph-name="abreve" unicode="&#x103;" horiz-adv-x="540" 
d="M428.5 450.5q49.5 -50.5 49.5 -153.5v-244q0 -27 -16 -42.5t-44 -15.5q-26 0 -42.5 16t-16.5 42v22q-17 -39 -53.5 -61t-84.5 -22q-49 0 -89 20t-63 55t-23 78q0 54 27.5 85t89.5 45t171 14h25v23q0 49 -21 71.5t-68 22.5q-29 0 -59 -8.5t-71 -24.5q-26 -13 -38 -13
q-18 0 -29.5 13t-11.5 34q0 17 8.5 29.5t28.5 23.5q35 19 83.5 30t95.5 11q102 0 151.5 -50.5zM327.5 115.5q31.5 33.5 31.5 86.5v21h-18q-67 0 -104 -6t-53 -21t-16 -41q0 -32 22.5 -52.5t55.5 -20.5q50 0 81.5 33.5zM175.5 604.5q-45.5 29.5 -64.5 78.5q-3 9 -3 17
q0 17 11 27.5t26 10.5q22 0 35 -22q32 -57 97 -57t97 57q13 21 35 21q15 0 26 -10t11 -27q0 -8 -3 -17q-19 -49 -64.5 -78.5t-101.5 -29.5t-101.5 29.5z" />
    <glyph glyph-name="Aogonek" unicode="&#x104;" horiz-adv-x="742" 
d="M739 -115q11 0 17.5 -9t6.5 -21q0 -21 -17 -29q-36 -21 -83 -21q-53 0 -88 31t-35 79q0 34 18 62.5t53 46.5l-3 7l-60 134h-352l-60 -134q-8 -18 -22 -26.5t-31 -8.5q-23 0 -42 16t-19 39q0 13 6 26l276 593q9 20 27.5 30.5t39.5 10.5t39.5 -10.5t27.5 -30.5l277 -593
q6 -13 6 -25q0 -17 -9.5 -30.5t-24.5 -19.5q-63 -22 -63 -71q0 -27 16 -42t41 -15q24 0 48 9q8 2 10 2zM240 265h264l-132 297z" />
    <glyph glyph-name="aogonek" unicode="&#x105;" horiz-adv-x="540" 
d="M499 -115q11 0 18 -8.5t7 -20.5q0 -9 -4.5 -17t-13.5 -13q-37 -21 -82 -21q-55 0 -89.5 30.5t-34.5 79.5q0 33 18 61t50 45q-9 14 -9 32v22q-17 -39 -53 -61t-84 -22q-49 0 -89.5 20t-63.5 55t-23 78q0 54 27.5 85t90 45t170.5 14h25v23q0 49 -21 71.5t-68 22.5
q-29 0 -59 -8.5t-71 -24.5q-28 -13 -38 -13q-18 0 -29.5 13t-11.5 34q0 17 8.5 29.5t28.5 23.5q35 19 83.5 30t95.5 11q102 0 151.5 -50.5t49.5 -153.5v-244q0 -40 -31 -52q-63 -24 -63 -70q0 -26 15.5 -41.5t41.5 -15.5q20 0 48 9q8 2 10 2zM327.5 115.5
q31.5 33.5 31.5 86.5v21h-18q-66 0 -103.5 -6.5t-53.5 -21t-16 -40.5q0 -32 22.5 -52.5t55.5 -20.5q50 0 81.5 33.5z" />
    <glyph glyph-name="Cacute" unicode="&#x106;" horiz-adv-x="678" 
d="M212.5 35q-76.5 44 -117.5 126t-41 192t41 191.5t117.5 125.5t178.5 44q66 0 124 -19.5t103 -56.5q13 -10 18 -21t5 -27q0 -22 -12 -37t-29 -15q-20 0 -41 14q-43 32 -80 44.5t-82 12.5q-104 0 -157.5 -65t-53.5 -191q0 -127 53.5 -192t157.5 -65q43 0 79.5 13t82.5 44
q10 6 20 10t21 4q17 0 29 -15t12 -37q0 -15 -5 -26.5t-18 -21.5q-45 -37 -103 -56.5t-124 -19.5q-102 0 -178.5 44zM391 760q-13 0 -22 8.5t-9 19.5t11 22l91 94q19 20 43 20q20 0 34.5 -14.5t14.5 -33.5q0 -13 -8.5 -25t-25.5 -21l-113 -66q-8 -4 -16 -4z" />
    <glyph glyph-name="cacute" unicode="&#x107;" horiz-adv-x="488" 
d="M153.5 23q-55.5 31 -85.5 88t-30 133t31.5 134.5t88.5 90.5t131 32q39 0 78.5 -11t69.5 -30q32 -21 32 -53q0 -22 -10.5 -35.5t-27.5 -13.5q-11 0 -23 5t-24 12q-22 13 -42 20.5t-46 7.5q-62 0 -95.5 -40.5t-33.5 -116.5q0 -75 33.5 -115.5t95.5 -40.5q25 0 44.5 7.5
t43.5 20.5q15 9 26 13.5t22 4.5q16 0 27 -14t11 -35q0 -17 -7.5 -29.5t-24.5 -22.5q-31 -20 -72 -31.5t-84 -11.5q-73 0 -128.5 31zM292 548q-14 0 -23.5 9.5t-9.5 22.5q0 11 8 22l97 129q23 30 53 30q22 0 37.5 -15.5t15.5 -36.5q0 -28 -27 -48l-129 -105q-11 -8 -22 -8z
" />
    <glyph glyph-name="Ccircumflex" unicode="&#x108;" horiz-adv-x="678" 
d="M212.5 35q-76.5 44 -117.5 126t-41 192t41 191.5t117.5 125.5t178.5 44q66 0 124 -19.5t103 -56.5q13 -10 18 -21t5 -27q0 -22 -12 -37t-29 -15q-20 0 -41 14q-43 32 -80 44.5t-82 12.5q-104 0 -157.5 -65t-53.5 -191q0 -127 53.5 -192t157.5 -65q43 0 79.5 13t82.5 44
q10 6 20 10t21 4q17 0 29 -15t12 -37q0 -15 -5 -26.5t-18 -21.5q-45 -37 -103 -56.5t-124 -19.5q-102 0 -178.5 44zM285 760q-16 0 -27.5 11.5t-11.5 26.5q0 17 16 30l83 77q21 18 46 18t46 -18l83 -77q15 -14 15 -31q0 -15 -11 -26t-27 -11q-17 0 -31 14l-75 77l-75 -77
q-14 -14 -31 -14z" />
    <glyph glyph-name="ccircumflex" unicode="&#x109;" horiz-adv-x="488" 
d="M153.5 23q-55.5 31 -85.5 88t-30 133t31.5 134.5t88.5 90.5t131 32q39 0 78.5 -11t69.5 -30q32 -21 32 -53q0 -22 -10.5 -35.5t-27.5 -13.5q-11 0 -23 5t-24 12q-22 13 -42 20.5t-46 7.5q-62 0 -95.5 -40.5t-33.5 -116.5q0 -75 33.5 -115.5t95.5 -40.5q25 0 44.5 7.5
t43.5 20.5q15 9 26 13.5t22 4.5q16 0 27 -14t11 -35q0 -17 -7.5 -29.5t-24.5 -22.5q-31 -20 -72 -31.5t-84 -11.5q-73 0 -128.5 31zM183 548q-16 0 -28.5 12t-12.5 28q0 13 9 26l88 119q12 15 23 22t27 7q17 0 28 -7t22 -23l88 -118q9 -12 9 -26q0 -16 -12.5 -28t-28.5 -12
q-21 0 -35 21l-71 110l-71 -110q-14 -21 -35 -21z" />
    <glyph glyph-name="Cdotaccent" unicode="&#x10a;" horiz-adv-x="678" 
d="M212.5 35q-76.5 44 -117.5 126t-41 192t41 191.5t117.5 125.5t178.5 44q66 0 124 -19.5t103 -56.5q13 -10 18 -21t5 -27q0 -22 -12 -37t-29 -15q-20 0 -41 14q-43 32 -80 44.5t-82 12.5q-104 0 -157.5 -65t-53.5 -191q0 -127 53.5 -192t157.5 -65q43 0 79.5 13t82.5 44
q10 6 20 10t21 4q17 0 29 -15t12 -37q0 -15 -5 -26.5t-18 -21.5q-45 -37 -103 -56.5t-124 -19.5q-102 0 -178.5 44zM337 794.5q-20 18.5 -20 48.5t20 48t54 18q33 0 53.5 -18t20.5 -48t-20 -48.5t-54 -18.5t-54 18.5z" />
    <glyph glyph-name="cdotaccent" unicode="&#x10b;" horiz-adv-x="488" 
d="M153.5 23q-55.5 31 -85.5 88t-30 133t31.5 134.5t88.5 90.5t131 32q39 0 78.5 -11t69.5 -30q32 -21 32 -53q0 -22 -10.5 -35.5t-27.5 -13.5q-11 0 -23 5t-24 12q-22 13 -42 20.5t-46 7.5q-62 0 -95.5 -40.5t-33.5 -116.5q0 -75 33.5 -115.5t95.5 -40.5q25 0 44.5 7.5
t43.5 20.5q15 9 26 13.5t22 4.5q16 0 27 -14t11 -35q0 -17 -7.5 -29.5t-24.5 -22.5q-31 -20 -72 -31.5t-84 -11.5q-73 0 -128.5 31zM235 606.5q-20 18.5 -20 48.5t20 48t54 18q33 0 53.5 -18t20.5 -48t-20 -48.5t-54 -18.5t-54 18.5z" />
    <glyph glyph-name="Ccaron" unicode="&#x10c;" horiz-adv-x="678" 
d="M212.5 35q-76.5 44 -117.5 126t-41 192t41 191.5t117.5 125.5t178.5 44q66 0 124 -19.5t103 -56.5q13 -10 18 -21t5 -27q0 -22 -12 -37t-29 -15q-20 0 -41 14q-43 32 -80 44.5t-82 12.5q-104 0 -157.5 -65t-53.5 -191q0 -127 53.5 -192t157.5 -65q43 0 79.5 13t82.5 44
q10 6 20 10t21 4q17 0 29 -15t12 -37q0 -15 -5 -26.5t-18 -21.5q-45 -37 -103 -56.5t-124 -19.5q-102 0 -178.5 44zM345 778l-83 77q-15 14 -15 31q0 15 11 26.5t27 11.5q17 0 31 -14l75 -77l75 77q14 14 31 14q16 0 27.5 -11.5t11.5 -26.5q0 -16 -16 -31l-83 -77
q-21 -18 -46 -18q-23 0 -46 18z" />
    <glyph glyph-name="ccaron" unicode="&#x10d;" horiz-adv-x="488" 
d="M153.5 23q-55.5 31 -85.5 88t-30 133t31.5 134.5t88.5 90.5t131 32q39 0 78.5 -11t69.5 -30q32 -21 32 -53q0 -22 -10.5 -35.5t-27.5 -13.5q-11 0 -23 5t-24 12q-22 13 -42 20.5t-46 7.5q-62 0 -95.5 -40.5t-33.5 -116.5q0 -75 33.5 -115.5t95.5 -40.5q25 0 44.5 7.5
t43.5 20.5q15 9 26 13.5t22 4.5q16 0 27 -14t11 -35q0 -17 -7.5 -29.5t-24.5 -22.5q-31 -20 -72 -31.5t-84 -11.5q-73 0 -128.5 31zM261.5 555.5q-11.5 7.5 -22.5 22.5l-88 118q-9 12 -9 26q0 16 12.5 28t28.5 12q21 0 35 -21l71 -110l71 110q14 21 35 21q16 0 28.5 -12
t12.5 -28q0 -12 -9 -26l-88 -118q-11 -15 -22.5 -22.5t-27.5 -7.5t-27.5 7.5z" />
    <glyph glyph-name="Dcaron" unicode="&#x10e;" horiz-adv-x="754" 
d="M92.5 16q-16.5 16 -16.5 45v583q0 29 16.5 45t45.5 16h198q173 0 268.5 -92.5t95.5 -259.5q0 -168 -95.5 -260.5t-268.5 -92.5h-198q-29 0 -45.5 16zM571 353q0 247 -243 247h-123v-495h123q243 0 243 248zM331 778l-83 77q-15 14 -15 31q0 15 11 26.5t27 11.5
q17 0 31 -14l75 -77l75 77q14 14 31 14q16 0 27.5 -11.5t11.5 -26.5q0 -16 -16 -31l-83 -77q-21 -18 -46 -18q-23 0 -46 18z" />
    <glyph glyph-name="dcaron" unicode="&#x10f;" horiz-adv-x="601" 
d="M576 700.5q11 10.5 26 10.5q16 0 26.5 -12t7.5 -32l-23 -144q-1 -11 -8 -17.5t-16 -6.5q-10 0 -17 7.5t-7 20.5v143q0 20 11 30.5zM519 694q18 -16 18 -42v-598q0 -27 -17 -43t-45 -16t-45 16t-17 43v25q-22 -41 -63.5 -64t-94.5 -23q-63 0 -112.5 32t-77 90.5
t-27.5 134.5t27.5 133t76.5 88t113 31q53 0 94 -22t63 -62v237q0 25 16.5 40.5t44.5 15.5t46 -16zM380.5 130q32.5 41 32.5 117t-32.5 116.5t-91.5 40.5q-60 0 -93 -40t-33 -115q0 -76 33 -118t92 -42q60 0 92.5 41z" />
    <glyph glyph-name="Dcroat" unicode="&#x110;" horiz-adv-x="778" 
d="M628 612.5q96 -92.5 96 -259.5q0 -168 -95.5 -260.5t-268.5 -92.5h-199q-28 0 -44.5 16.5t-16.5 44.5v246h-42q-28 0 -43 13t-15 37q0 23 15 36t43 13h42v238q0 29 16 45t45 16h199q172 0 268 -92.5zM595 353q0 247 -243 247h-124v-194h143q28 0 42.5 -13t14.5 -36
q0 -24 -14.5 -37t-42.5 -13h-143v-202h124q243 0 243 248z" />
    <glyph glyph-name="dcroat" unicode="&#x111;" horiz-adv-x="601" 
d="M623.5 618q13.5 -12 13.5 -33t-13.5 -32.5t-39.5 -11.5h-47v-487q0 -27 -17 -43t-45 -16t-45 16t-17 43v25q-22 -41 -63.5 -64t-94.5 -23q-63 0 -112.5 32t-77 90.5t-27.5 134.5t27.5 133t76.5 88t113 31q53 0 94 -22t63 -62v124h-148q-25 0 -38.5 11.5t-13.5 32.5
t13.5 33t38.5 12h148v24q0 25 16.5 40.5t44.5 15.5t46 -16t18 -42v-22h47q26 0 39.5 -12zM380.5 130q32.5 41 32.5 117t-32.5 116.5t-91.5 40.5q-60 0 -93 -40t-33 -115q0 -76 33 -118t92 -42q60 0 92.5 41z" />
    <glyph glyph-name="Emacron" unicode="&#x112;" horiz-adv-x="589" 
d="M92.5 16q-16.5 16 -16.5 45v583q0 29 16.5 45t45.5 16h361q29 0 45 -13t16 -37q0 -25 -16 -38.5t-45 -13.5h-297v-194h277q29 0 45 -13t16 -38q0 -24 -16 -37t-45 -13h-277v-206h297q29 0 45 -13.5t16 -38.5q0 -24 -16 -37t-45 -13h-361q-29 0 -45.5 16zM174.5 812.5
q-12.5 10.5 -12.5 29.5q0 20 12.5 30.5t32.5 10.5h242q20 0 32.5 -10.5t12.5 -30.5q0 -19 -12.5 -29.5t-32.5 -10.5h-242q-20 0 -32.5 10.5z" />
    <glyph glyph-name="emacron" unicode="&#x113;" horiz-adv-x="531" 
d="M479.5 121q10.5 -13 10.5 -35q0 -31 -37 -52q-34 -19 -77 -30.5t-82 -11.5q-118 0 -187 68t-69 186q0 75 30 133t84.5 90t123.5 32q66 0 115 -29t76 -82t27 -125q0 -43 -38 -43h-295q6 -69 39 -101.5t96 -32.5q32 0 56.5 8t55.5 22q30 16 44 16q17 0 27.5 -13zM197.5 381
q-30.5 -32 -36.5 -92h226q-2 61 -30 92.5t-78 31.5q-51 0 -81.5 -32zM122.5 624.5q-12.5 10.5 -12.5 29.5q0 20 12.5 30.5t32.5 10.5h242q20 0 32.5 -10.5t12.5 -30.5q0 -19 -12.5 -29.5t-32.5 -10.5h-242q-20 0 -32.5 10.5z" />
    <glyph glyph-name="Ebreve" unicode="&#x114;" horiz-adv-x="589" 
d="M92.5 16q-16.5 16 -16.5 45v583q0 29 16.5 45t45.5 16h361q29 0 45 -13t16 -37q0 -25 -16 -38.5t-45 -13.5h-297v-194h277q29 0 45 -13t16 -38q0 -24 -16 -37t-45 -13h-277v-206h297q29 0 45 -13.5t16 -38.5q0 -24 -16 -37t-45 -13h-361q-29 0 -45.5 16zM229 796
q-43 21 -63 58q-6 12 -6 23q0 15 10 24t25 9q18 0 34 -16q34 -41 99 -41t99 41q16 16 35 16q15 0 24.5 -9t9.5 -24q0 -11 -6 -23q-20 -37 -63 -58t-99 -21t-99 21z" />
    <glyph glyph-name="ebreve" unicode="&#x115;" horiz-adv-x="531" 
d="M479.5 121q10.5 -13 10.5 -35q0 -31 -37 -52q-34 -19 -77 -30.5t-82 -11.5q-118 0 -187 68t-69 186q0 75 30 133t84.5 90t123.5 32q66 0 115 -29t76 -82t27 -125q0 -43 -38 -43h-295q6 -69 39 -101.5t96 -32.5q32 0 56.5 8t55.5 22q30 16 44 16q17 0 27.5 -13zM197.5 381
q-30.5 -32 -36.5 -92h226q-2 61 -30 92.5t-78 31.5q-51 0 -81.5 -32zM174.5 604.5q-45.5 29.5 -64.5 78.5q-3 9 -3 17q0 17 11 27.5t26 10.5q22 0 35 -22q32 -57 97 -57t97 57q13 21 35 21q15 0 26 -10t11 -27q0 -8 -3 -17q-19 -49 -64.5 -78.5t-101.5 -29.5t-101.5 29.5z
" />
    <glyph glyph-name="Edotaccent" unicode="&#x116;" horiz-adv-x="589" 
d="M92.5 16q-16.5 16 -16.5 45v583q0 29 16.5 45t45.5 16h361q29 0 45 -13t16 -37q0 -25 -16 -38.5t-45 -13.5h-297v-194h277q29 0 45 -13t16 -38q0 -24 -16 -37t-45 -13h-277v-206h297q29 0 45 -13.5t16 -38.5q0 -24 -16 -37t-45 -13h-361q-29 0 -45.5 16zM274 794.5
q-20 18.5 -20 48.5t20 48t54 18q33 0 53.5 -18t20.5 -48t-20 -48.5t-54 -18.5t-54 18.5z" />
    <glyph glyph-name="edotaccent" unicode="&#x117;" horiz-adv-x="531" 
d="M479.5 121q10.5 -13 10.5 -35q0 -31 -37 -52q-34 -19 -77 -30.5t-82 -11.5q-118 0 -187 68t-69 186q0 75 30 133t84.5 90t123.5 32q66 0 115 -29t76 -82t27 -125q0 -43 -38 -43h-295q6 -69 39 -101.5t96 -32.5q32 0 56.5 8t55.5 22q30 16 44 16q17 0 27.5 -13zM197.5 381
q-30.5 -32 -36.5 -92h226q-2 61 -30 92.5t-78 31.5q-51 0 -81.5 -32zM222 606.5q-20 18.5 -20 48.5t20 48t54 18q33 0 53.5 -18t20.5 -48t-20 -48.5t-54 -18.5t-54 18.5z" />
    <glyph glyph-name="Eogonek" unicode="&#x118;" horiz-adv-x="589" 
d="M565 -115q11 0 18 -9t7 -21q0 -21 -17 -29q-35 -21 -83 -21q-55 0 -89.5 30.5t-34.5 77.5q0 52 39 87h-267q-29 0 -45.5 16t-16.5 45v583q0 29 16.5 45t45.5 16h361q29 0 45 -13t16 -37q0 -25 -16 -38.5t-45 -13.5h-297v-194h277q29 0 45 -13t16 -38q0 -24 -16 -37
t-45 -13h-277v-206h297q29 0 45 -13.5t16 -38.5q0 -21 -11 -33t-35 -17q-31 -5 -47 -23t-16 -46q0 -27 15.5 -42t40.5 -15q20 0 48 9q8 2 10 2z" />
    <glyph glyph-name="eogonek" unicode="&#x119;" horiz-adv-x="531" 
d="M466 -115q11 0 17.5 -9t6.5 -21q0 -21 -17 -29q-35 -21 -83 -21q-54 0 -88.5 30.5t-34.5 77.5q0 46 34 79h-6q-119 0 -188 68t-69 186q0 75 30 133t84.5 90t123.5 32q66 0 115 -29t76 -82t27 -125q0 -43 -38 -43h-295q6 -69 39 -101.5t96 -32.5q32 0 56.5 8t55.5 22
q30 16 44 16q17 0 27.5 -13t10.5 -35q0 -17 -10.5 -30t-32.5 -25q-54 -29 -75 -51t-21 -49t15.5 -42t41.5 -15q24 0 48 9q8 2 10 2zM197.5 381q-30.5 -32 -36.5 -92h226q-2 61 -30 92.5t-78 31.5q-51 0 -81.5 -32z" />
    <glyph glyph-name="Ecaron" unicode="&#x11a;" horiz-adv-x="589" 
d="M92.5 16q-16.5 16 -16.5 45v583q0 29 16.5 45t45.5 16h361q29 0 45 -13t16 -37q0 -25 -16 -38.5t-45 -13.5h-297v-194h277q29 0 45 -13t16 -38q0 -24 -16 -37t-45 -13h-277v-206h297q29 0 45 -13.5t16 -38.5q0 -24 -16 -37t-45 -13h-361q-29 0 -45.5 16zM282 778l-83 77
q-15 14 -15 31q0 15 11 26.5t27 11.5q17 0 31 -14l75 -77l75 77q14 14 31 14q16 0 27.5 -11.5t11.5 -26.5q0 -16 -16 -31l-83 -77q-21 -18 -46 -18q-23 0 -46 18z" />
    <glyph glyph-name="ecaron" unicode="&#x11b;" horiz-adv-x="531" 
d="M479.5 121q10.5 -13 10.5 -35q0 -31 -37 -52q-34 -19 -77 -30.5t-82 -11.5q-118 0 -187 68t-69 186q0 75 30 133t84.5 90t123.5 32q66 0 115 -29t76 -82t27 -125q0 -43 -38 -43h-295q6 -69 39 -101.5t96 -32.5q32 0 56.5 8t55.5 22q30 16 44 16q17 0 27.5 -13zM197.5 381
q-30.5 -32 -36.5 -92h226q-2 61 -30 92.5t-78 31.5q-51 0 -81.5 -32zM248.5 555.5q-11.5 7.5 -22.5 22.5l-88 118q-9 12 -9 26q0 16 12.5 28t28.5 12q21 0 35 -21l71 -110l71 110q14 21 35 21q16 0 28.5 -12t12.5 -28q0 -12 -9 -26l-88 -118q-11 -15 -22.5 -22.5t-27.5 -7.5
t-27.5 7.5z" />
    <glyph glyph-name="Gcircumflex" unicode="&#x11c;" horiz-adv-x="733" 
d="M650 367.5q14 -13.5 14 -35.5v-215q0 -46 -12 -65t-49 -31q-40 -14 -93 -22t-102 -8q-109 0 -189 43t-122.5 124.5t-42.5 194.5q0 111 42.5 192.5t120.5 125t184 43.5q141 0 231 -76q12 -11 17.5 -22t5.5 -26q0 -22 -12 -37t-29 -15q-11 0 -20 3.5t-21 11.5
q-44 31 -82 43.5t-86 12.5q-109 0 -164.5 -64.5t-55.5 -191.5q0 -260 228 -260q68 0 136 19v177h-113q-24 0 -37.5 12t-13.5 34t13.5 34t37.5 12h177q23 0 37 -13.5zM295 760q-16 0 -27.5 11.5t-11.5 26.5q0 17 16 30l83 77q21 18 46 18t46 -18l83 -77q15 -14 15 -31
q0 -15 -11 -26t-27 -11q-17 0 -31 14l-75 77l-75 -77q-14 -14 -31 -14z" />
    <glyph glyph-name="gcircumflex" unicode="&#x11d;" horiz-adv-x="605" 
d="M524 483q17 -16 17 -43v-395q0 -115 -64 -174t-189 -59q-109 0 -182 41q-37 22 -37 53q0 22 10.5 35t27.5 13q9 0 22 -4.5t27 -10.5q36 -15 64.5 -23t65.5 -8q131 0 131 128v64q-22 -41 -64 -63.5t-96 -22.5q-64 0 -113.5 30.5t-77.5 85.5t-28 127t27.5 127.5t77.5 86
t114 30.5q54 0 96 -22.5t64 -63.5v26q0 26 17 42t45 16t45 -16zM383.5 150q33.5 39 33.5 107q0 69 -33.5 108t-93.5 39q-59 0 -93 -39t-34 -108q0 -68 34 -107t93 -39q60 0 93.5 39zM198 548q-16 0 -28.5 12t-12.5 28q0 13 9 26l88 119q12 15 23 22t27 7q17 0 28 -7t22 -23
l88 -118q9 -12 9 -26q0 -16 -12.5 -28t-28.5 -12q-21 0 -35 21l-71 110l-71 -110q-14 -21 -35 -21z" />
    <glyph glyph-name="Gbreve" unicode="&#x11e;" horiz-adv-x="733" 
d="M650 367.5q14 -13.5 14 -35.5v-215q0 -46 -12 -65t-49 -31q-40 -14 -93 -22t-102 -8q-109 0 -189 43t-122.5 124.5t-42.5 194.5q0 111 42.5 192.5t120.5 125t184 43.5q141 0 231 -76q12 -11 17.5 -22t5.5 -26q0 -22 -12 -37t-29 -15q-11 0 -20 3.5t-21 11.5
q-44 31 -82 43.5t-86 12.5q-109 0 -164.5 -64.5t-55.5 -191.5q0 -260 228 -260q68 0 136 19v177h-113q-24 0 -37.5 12t-13.5 34t13.5 34t37.5 12h177q23 0 37 -13.5zM302 796q-43 21 -63 58q-6 12 -6 23q0 15 10 24t25 9q18 0 34 -16q34 -41 99 -41t99 41q16 16 35 16
q15 0 24.5 -9t9.5 -24q0 -11 -6 -23q-20 -37 -63 -58t-99 -21t-99 21z" />
    <glyph glyph-name="gbreve" unicode="&#x11f;" horiz-adv-x="605" 
d="M524 483q17 -16 17 -43v-395q0 -115 -64 -174t-189 -59q-109 0 -182 41q-37 22 -37 53q0 22 10.5 35t27.5 13q9 0 22 -4.5t27 -10.5q36 -15 64.5 -23t65.5 -8q131 0 131 128v64q-22 -41 -64 -63.5t-96 -22.5q-64 0 -113.5 30.5t-77.5 85.5t-28 127t27.5 127.5t77.5 86
t114 30.5q54 0 96 -22.5t64 -63.5v26q0 26 17 42t45 16t45 -16zM383.5 150q33.5 39 33.5 107q0 69 -33.5 108t-93.5 39q-59 0 -93 -39t-34 -108q0 -68 34 -107t93 -39q60 0 93.5 39zM202.5 604.5q-45.5 29.5 -64.5 78.5q-3 9 -3 17q0 17 11 27.5t26 10.5q22 0 35 -22
q32 -57 97 -57t97 57q13 21 35 21q15 0 26 -10t11 -27q0 -8 -3 -17q-19 -49 -64.5 -78.5t-101.5 -29.5t-101.5 29.5z" />
    <glyph glyph-name="Gdotaccent" unicode="&#x120;" horiz-adv-x="733" 
d="M650 367.5q14 -13.5 14 -35.5v-215q0 -46 -12 -65t-49 -31q-40 -14 -93 -22t-102 -8q-109 0 -189 43t-122.5 124.5t-42.5 194.5q0 111 42.5 192.5t120.5 125t184 43.5q141 0 231 -76q12 -11 17.5 -22t5.5 -26q0 -22 -12 -37t-29 -15q-11 0 -20 3.5t-21 11.5
q-44 31 -82 43.5t-86 12.5q-109 0 -164.5 -64.5t-55.5 -191.5q0 -260 228 -260q68 0 136 19v177h-113q-24 0 -37.5 12t-13.5 34t13.5 34t37.5 12h177q23 0 37 -13.5zM347 794.5q-20 18.5 -20 48.5t20 48t54 18q33 0 53.5 -18t20.5 -48t-20 -48.5t-54 -18.5t-54 18.5z" />
    <glyph glyph-name="gdotaccent" unicode="&#x121;" horiz-adv-x="605" 
d="M524 483q17 -16 17 -43v-395q0 -115 -64 -174t-189 -59q-109 0 -182 41q-37 22 -37 53q0 22 10.5 35t27.5 13q9 0 22 -4.5t27 -10.5q36 -15 64.5 -23t65.5 -8q131 0 131 128v64q-22 -41 -64 -63.5t-96 -22.5q-64 0 -113.5 30.5t-77.5 85.5t-28 127t27.5 127.5t77.5 86
t114 30.5q54 0 96 -22.5t64 -63.5v26q0 26 17 42t45 16t45 -16zM383.5 150q33.5 39 33.5 107q0 69 -33.5 108t-93.5 39q-59 0 -93 -39t-34 -108q0 -68 34 -107t93 -39q60 0 93.5 39zM250 606.5q-20 18.5 -20 48.5t20 48t54 18q33 0 53.5 -18t20.5 -48t-20 -48.5t-54 -18.5
t-54 18.5z" />
    <glyph glyph-name="uni0122" unicode="&#x122;" horiz-adv-x="733" 
d="M650 367.5q14 -13.5 14 -35.5v-215q0 -46 -12 -65t-49 -31q-40 -14 -93 -22t-102 -8q-109 0 -189 43t-122.5 124.5t-42.5 194.5q0 111 42.5 192.5t120.5 125t184 43.5q141 0 231 -76q12 -11 17.5 -22t5.5 -26q0 -22 -12 -37t-29 -15q-11 0 -20 3.5t-21 11.5
q-44 31 -82 43.5t-86 12.5q-109 0 -164.5 -64.5t-55.5 -191.5q0 -260 228 -260q68 0 136 19v177h-113q-24 0 -37.5 12t-13.5 34t13.5 34t37.5 12h177q23 0 37 -13.5zM460.5 -83q19.5 -20 19.5 -61q0 -31 -10 -59t-28 -48q-15 -16 -34 -16q-12 0 -21 7t-9 17q0 9 7 19
q20 27 24 48h-4q-26 0 -44 14t-18 40q0 27 18 43t46 16q34 0 53.5 -20z" />
    <glyph glyph-name="uni0123" unicode="&#x123;" horiz-adv-x="605" 
d="M524 483q17 -16 17 -43v-395q0 -115 -64 -174t-189 -59q-109 0 -182 41q-37 22 -37 53q0 22 10.5 35t27.5 13q9 0 22 -4.5t27 -10.5q36 -15 64.5 -23t65.5 -8q131 0 131 128v64q-22 -41 -64 -63.5t-96 -22.5q-64 0 -113.5 30.5t-77.5 85.5t-28 127t27.5 127.5t77.5 86
t114 30.5q54 0 96 -22.5t64 -63.5v26q0 26 17 42t45 16t45 -16zM383.5 150q33.5 39 33.5 107q0 69 -33.5 108t-93.5 39q-59 0 -93 -39t-34 -108q0 -68 34 -107t93 -39q60 0 93.5 39zM351 676q18 -14 18 -39q0 -27 -18 -43.5t-46 -16.5q-34 0 -53.5 20.5t-19.5 61.5
q0 31 10 58.5t28 47.5q13 16 35 16q12 0 20.5 -6.5t8.5 -16.5q0 -9 -7 -19q-20 -27 -24 -49h4q26 0 44 -14z" />
    <glyph glyph-name="Hcircumflex" unicode="&#x124;" horiz-adv-x="766" 
d="M673 692.5q17 -17.5 17 -46.5v-587q0 -29 -17.5 -47t-45.5 -18q-29 0 -46 18t-17 47v247h-361v-247q0 -29 -17.5 -47t-46.5 -18q-28 0 -45.5 18t-17.5 47v587q0 29 17 46.5t46 17.5t46.5 -17.5t17.5 -46.5v-236h361v236q0 29 17 46.5t46 17.5t46 -17.5zM277 760
q-16 0 -27.5 11.5t-11.5 26.5q0 17 16 30l83 77q21 18 46 18t46 -18l83 -77q15 -14 15 -31q0 -15 -11 -26t-27 -11q-17 0 -31 14l-75 77l-75 -77q-14 -14 -31 -14z" />
    <glyph glyph-name="hcircumflex" unicode="&#x125;" horiz-adv-x="585" 
d="M523 300v-246q0 -28 -16.5 -44t-45.5 -16t-46 16t-17 44v246q0 53 -21.5 77.5t-67.5 24.5q-54 0 -86.5 -34t-32.5 -91v-223q0 -28 -17 -44t-46 -16t-45.5 16t-16.5 44v598q0 26 17.5 42t45.5 16t45 -15t17 -41v-233q25 39 66.5 59.5t94.5 20.5q172 0 172 -201zM22 760
q-16 0 -27.5 11.5t-11.5 26.5q0 17 16 30l83 77q21 18 46 18t46 -18l83 -77q15 -14 15 -31q0 -15 -11 -26t-27 -11q-17 0 -31 14l-75 77l-75 -77q-14 -14 -31 -14z" />
    <glyph glyph-name="Hbar" unicode="&#x126;" horiz-adv-x="814" 
d="M799 594q15 -13 15 -35t-15 -35t-42 -13h-43v-452q0 -31 -18 -48t-46 -17q-27 0 -45 17t-18 48v247h-361v-247q0 -31 -18 -48t-45 -17t-45 17t-18 48v452h-42q-28 0 -43 13t-15 35t15 35t43 13h42v39q0 30 18 47t45 17t45 -17t18 -47v-39h361v39q0 30 18 47t45 17
q28 0 46 -17t18 -47v-39h43q27 0 42 -13zM587 410v101h-361v-101h361z" />
    <glyph glyph-name="hbar" unicode="&#x127;" horiz-adv-x="585" 
d="M523 300v-246q0 -28 -16.5 -44t-45.5 -16t-46 16t-17 44v246q0 53 -21.5 77.5t-67.5 24.5q-54 0 -86.5 -34t-32.5 -91v-223q0 -28 -17 -44t-46 -16t-45.5 16t-16.5 44v487h-48q-25 0 -38.5 11.5t-13.5 32.5t13.5 33t38.5 12h48v22q0 26 17.5 42t45.5 16t45 -15t17 -41
v-24h147q26 0 39.5 -12t13.5 -33t-13.5 -32.5t-39.5 -11.5h-147v-120q25 39 66.5 59.5t94.5 20.5q172 0 172 -201z" />
    <glyph glyph-name="Itilde" unicode="&#x128;" horiz-adv-x="281" 
d="M93.5 12q-17.5 18 -17.5 47v587q0 29 17.5 46.5t46.5 17.5q30 0 47.5 -17.5t17.5 -46.5v-587q0 -29 -17.5 -47t-47.5 -18q-29 0 -46.5 18zM178.5 788.5q-17.5 4.5 -43.5 13.5q-18 6 -35.5 11t-31.5 5q-13 0 -20.5 -4.5t-17.5 -14.5q-9 -9 -14 -12.5t-14 -3.5
q-13 0 -20.5 8.5t-7.5 22.5q0 19 12 39.5t33.5 34.5t47.5 14q17 0 34.5 -4.5t43.5 -13.5q18 -6 35.5 -11t31.5 -5q13 0 20.5 4.5t17.5 14.5q9 9 14 12.5t14 3.5q13 0 20.5 -8t7.5 -22q0 -19 -12 -40t-33.5 -35t-47.5 -14q-17 0 -34.5 4.5z" />
    <glyph glyph-name="itilde" unicode="&#x129;" horiz-adv-x="254" 
d="M82.5 9.5q-17.5 15.5 -17.5 44.5v386q0 29 17.5 44t44.5 15t45 -15t18 -44v-386q0 -29 -18 -44.5t-45 -15.5t-44.5 15.5zM164.5 592q-17.5 8 -44.5 24q-22 13 -35 19t-24 6q-16 0 -25.5 -8t-19.5 -23q-8 -12 -14 -17.5t-15 -5.5q-11 0 -18.5 9.5t-7.5 24.5q0 20 12 44.5
t33.5 42t47.5 17.5q18 0 35.5 -8t44.5 -24q22 -13 35 -19t24 -6q16 0 25.5 8t19.5 23q8 12 14 17.5t15 5.5q12 0 19 -9.5t7 -24.5q0 -20 -12 -44.5t-33.5 -42t-47.5 -17.5q-18 0 -35.5 8z" />
    <glyph glyph-name="Imacron" unicode="&#x12a;" horiz-adv-x="281" 
d="M93.5 12q-17.5 18 -17.5 47v587q0 29 17.5 46.5t46.5 17.5q30 0 47.5 -17.5t17.5 -46.5v-587q0 -29 -17.5 -47t-47.5 -18q-29 0 -46.5 18zM-13.5 812.5q-12.5 10.5 -12.5 29.5q0 20 12.5 30.5t32.5 10.5h242q20 0 32.5 -10.5t12.5 -30.5q0 -19 -12.5 -29.5t-32.5 -10.5
h-242q-20 0 -32.5 10.5z" />
    <glyph glyph-name="imacron" unicode="&#x12b;" horiz-adv-x="254" 
d="M82.5 9.5q-17.5 15.5 -17.5 44.5v386q0 29 17.5 44t44.5 15t45 -15t18 -44v-386q0 -29 -18 -44.5t-45 -15.5t-44.5 15.5zM-26.5 624.5q-12.5 10.5 -12.5 29.5q0 20 12.5 30.5t32.5 10.5h242q20 0 32.5 -10.5t12.5 -30.5q0 -19 -12.5 -29.5t-32.5 -10.5h-242
q-20 0 -32.5 10.5z" />
    <glyph glyph-name="Ibreve" unicode="&#x12c;" horiz-adv-x="281" 
d="M93.5 12q-17.5 18 -17.5 47v587q0 29 17.5 46.5t46.5 17.5q30 0 47.5 -17.5t17.5 -46.5v-587q0 -29 -17.5 -47t-47.5 -18q-29 0 -46.5 18zM41 796q-43 21 -63 58q-6 12 -6 23q0 15 10 24t25 9q18 0 34 -16q34 -41 99 -41t99 41q16 16 35 16q15 0 24.5 -9t9.5 -24
q0 -11 -6 -23q-20 -37 -63 -58t-99 -21t-99 21z" />
    <glyph glyph-name="ibreve" unicode="&#x12d;" horiz-adv-x="254" 
d="M82.5 9.5q-17.5 15.5 -17.5 44.5v386q0 29 17.5 44t44.5 15t45 -15t18 -44v-386q0 -29 -18 -44.5t-45 -15.5t-44.5 15.5zM25.5 604.5q-45.5 29.5 -64.5 78.5q-3 9 -3 17q0 17 11 27.5t26 10.5q22 0 35 -22q32 -57 97 -57t97 57q13 21 35 21q15 0 26 -10t11 -27
q0 -8 -3 -17q-19 -49 -64.5 -78.5t-101.5 -29.5t-101.5 29.5z" />
    <glyph glyph-name="Iogonek" unicode="&#x12e;" horiz-adv-x="281" 
d="M226 -115q11 0 17.5 -8.5t6.5 -20.5q0 -22 -17 -30q-35 -21 -83 -21q-55 0 -89 30.5t-34 79.5q0 32 16 58.5t46 44.5q-13 16 -13 41v587q0 29 17.5 46.5t46.5 17.5q30 0 47.5 -17.5t17.5 -46.5v-587q0 -20 -8.5 -35t-22.5 -20q-31 -11 -47 -30t-16 -43q0 -27 15.5 -42
t41.5 -15q22 0 48 9q8 2 10 2z" />
    <glyph glyph-name="iogonek" unicode="&#x12f;" horiz-adv-x="254" 
d="M73 606.5q-20 18.5 -20 48.5t20 48t54 18q33 0 53.5 -18t20.5 -48t-20 -48.5t-54 -18.5t-54 18.5zM211 -115q11 0 17.5 -8.5t6.5 -20.5q0 -22 -17 -30q-38 -21 -83 -21q-54 0 -88.5 30t-34.5 80q0 31 16 58.5t47 45.5q-10 15 -10 35v386q0 29 17.5 44t44.5 15t45 -15
t18 -44v-386q0 -39 -32 -52q-28 -9 -45 -26.5t-17 -44.5t16 -42t41 -15q24 0 48 9q8 2 10 2z" />
    <glyph glyph-name="Idotaccent" unicode="&#x130;" horiz-adv-x="281" 
d="M93.5 12q-17.5 18 -17.5 47v587q0 29 17.5 46.5t46.5 17.5q30 0 47.5 -17.5t17.5 -46.5v-587q0 -29 -17.5 -47t-47.5 -18q-29 0 -46.5 18zM86 794.5q-20 18.5 -20 48.5t20 48t54 18q33 0 53.5 -18t20.5 -48t-20 -48.5t-54 -18.5t-54 18.5z" />
    <glyph glyph-name="dotlessi" unicode="&#x131;" horiz-adv-x="254" 
d="M82.5 9.5q-17.5 15.5 -17.5 44.5v386q0 29 17.5 44t44.5 15t45 -15t18 -44v-386q0 -29 -18 -44.5t-45 -15.5t-44.5 15.5z" />
    <glyph glyph-name="Jcircumflex" unicode="&#x134;" horiz-adv-x="358" 
d="M-14 47q0 24 12.5 36.5t39.5 14.5l32 2q41 2 62 26t21 73v447q0 29 17.5 46.5t46.5 17.5q30 0 47.5 -17.5t17.5 -46.5v-447q0 -189 -187 -203l-32 -2q-77 -3 -77 53zM111 760q-16 0 -27.5 11.5t-11.5 26.5q0 17 16 30l83 77q21 18 46 18t46 -18l83 -77q15 -14 15 -31
q0 -15 -11 -26t-27 -11q-17 0 -31 14l-75 77l-75 -77q-14 -14 -31 -14z" />
    <glyph glyph-name="jcircumflex" unicode="&#x135;" horiz-adv-x="254" 
d="M-60.5 -172q-19.5 12 -19.5 37q0 41 50 45l27 2q34 2 51 21t17 58v449q0 29 17.5 44t44.5 15t45 -15t18 -44v-440q0 -168 -168 -180l-27 -2q-36 -2 -55.5 10zM20 548q-16 0 -28.5 12t-12.5 28q0 13 9 26l88 119q12 15 23 22t27 7q17 0 28 -7t22 -23l88 -118q9 -12 9 -26
q0 -16 -12.5 -28t-28.5 -12q-21 0 -35 21l-71 110l-71 -110q-14 -21 -35 -21z" />
    <glyph glyph-name="uni0136" unicode="&#x136;" horiz-adv-x="660" 
d="M643 54q0 -23 -17.5 -40.5t-41.5 -17.5q-25 0 -46 21l-333 312v-270q0 -29 -17.5 -47t-47.5 -18q-29 0 -46.5 18t-17.5 47v587q0 29 17.5 46.5t46.5 17.5q30 0 47.5 -17.5t17.5 -46.5v-257l322 302q18 18 41 18t40.5 -17.5t17.5 -40.5t-20 -42l-269 -246l286 -266
q20 -19 20 -43zM384.5 -83q19.5 -20 19.5 -61q0 -31 -10 -59t-28 -48q-15 -16 -34 -16q-12 0 -21 7t-9 17q0 9 7 19q20 27 24 48h-4q-26 0 -44 14t-18 40q0 27 18 43t46 16q34 0 53.5 -20z" />
    <glyph glyph-name="uni0137" unicode="&#x137;" horiz-adv-x="536" 
d="M520 54q0 -23 -16.5 -41t-38.5 -18t-41 18l-234 212v-171q0 -29 -18 -44t-45 -15t-44.5 15t-17.5 44v597q0 29 17.5 44t44.5 15t45 -15t18 -44v-376l214 205q18 18 41 18t40 -17t17 -40t-19 -42l-157 -146l174 -156q20 -19 20 -43zM320.5 -83q19.5 -20 19.5 -61
q0 -31 -10 -59t-28 -48q-15 -16 -34 -16q-12 0 -21 7t-9 17q0 9 7 19q20 27 24 48h-4q-26 0 -44 14t-18 40q0 27 18 43t46 16q34 0 53.5 -20z" />
    <glyph glyph-name="kgreenlandic" unicode="&#x138;" horiz-adv-x="536" 
d="M520 54q0 -23 -16.5 -41t-38.5 -18t-41 18l-234 212v-171q0 -29 -18 -44t-45 -15t-44.5 15t-17.5 44v386q0 29 17.5 44t44.5 15t45 -15t18 -44v-165l214 205q18 18 41 18t40 -17t17 -40t-19 -42l-157 -146l174 -156q20 -19 20 -43z" />
    <glyph glyph-name="Lacute" unicode="&#x139;" horiz-adv-x="555" 
d="M92 16q-16 16 -16 44v586q0 29 17.5 46.5t46.5 17.5q30 0 47.5 -17.5t17.5 -46.5v-540h281q60 0 60 -53t-60 -53h-349q-29 0 -45 16zM140 760q-13 0 -22 8.5t-9 19.5t11 22l91 94q19 20 43 20q20 0 34.5 -14.5t14.5 -33.5q0 -13 -8.5 -25t-25.5 -21l-113 -66
q-8 -4 -16 -4z" />
    <glyph glyph-name="lacute" unicode="&#x13a;" horiz-adv-x="254" 
d="M82.5 9.5q-17.5 15.5 -17.5 44.5v597q0 29 17.5 44t44.5 15t45 -15t18 -44v-597q0 -29 -18 -44.5t-45 -15.5t-44.5 15.5zM127 760q-13 0 -22 8.5t-9 19.5t11 22l91 94q19 20 43 20q20 0 34.5 -14.5t14.5 -33.5q0 -13 -8.5 -25t-25.5 -21l-113 -66q-8 -4 -16 -4z" />
    <glyph glyph-name="uni013B" unicode="&#x13b;" horiz-adv-x="555" 
d="M92 16q-16 16 -16 44v586q0 29 17.5 46.5t46.5 17.5q30 0 47.5 -17.5t17.5 -46.5v-540h281q60 0 60 -53t-60 -53h-349q-29 0 -45 16zM363.5 -83q19.5 -20 19.5 -61q0 -31 -10 -59t-28 -48q-15 -16 -34 -16q-12 0 -21 7t-9 17q0 9 7 19q20 27 24 48h-4q-26 0 -44 14
t-18 40q0 27 18 43t46 16q34 0 53.5 -20z" />
    <glyph glyph-name="uni013C" unicode="&#x13c;" horiz-adv-x="254" 
d="M82.5 9.5q-17.5 15.5 -17.5 44.5v597q0 29 17.5 44t44.5 15t45 -15t18 -44v-597q0 -29 -18 -44.5t-45 -15.5t-44.5 15.5zM179.5 -83q19.5 -20 19.5 -61q0 -31 -10 -59t-28 -48q-15 -16 -34 -16q-12 0 -21 7t-9 17q0 9 7 19q20 27 24 48h-4q-26 0 -44 14t-18 40
q0 27 18 43t46 16q34 0 53.5 -20z" />
    <glyph glyph-name="Lcaron" unicode="&#x13d;" horiz-adv-x="555" 
d="M92 16q-16 16 -16 44v586q0 29 17.5 46.5t46.5 17.5q30 0 47.5 -17.5t17.5 -46.5v-540h281q60 0 60 -53t-60 -53h-349q-29 0 -45 16zM340.5 506q-8.5 -6 -18.5 -6q-13 0 -22 8t-9 21v135q0 23 14 35t33 12t33 -11t14 -30q0 -4 -2 -14l-31 -133q-3 -11 -11.5 -17z" />
    <glyph glyph-name="lcaron" unicode="&#x13e;" horiz-adv-x="254" 
d="M259 505.5q-7 -6.5 -16 -6.5q-10 0 -17 7.5t-7 20.5v143q0 20 11 30.5t26 10.5q16 0 26.5 -12t7.5 -32l-23 -144q-1 -11 -8 -17.5zM82.5 9.5q-17.5 15.5 -17.5 44.5v597q0 29 17.5 44t44.5 15t45 -15t18 -44v-597q0 -29 -18 -44.5t-45 -15.5t-44.5 15.5z" />
    <glyph glyph-name="Ldot" unicode="&#x13f;" horiz-adv-x="555" 
d="M92 16q-16 16 -16 44v586q0 29 17.5 46.5t46.5 17.5q30 0 47.5 -17.5t17.5 -46.5v-540h281q60 0 60 -53t-60 -53h-349q-29 0 -45 16zM322 305q-20 18 -20 49q0 30 20 48t54 18q33 0 53.5 -18t20.5 -48q0 -31 -20 -49t-54 -18t-54 18z" />
    <glyph glyph-name="ldot" unicode="&#x140;" horiz-adv-x="332" 
d="M82.5 9.5q-17.5 15.5 -17.5 44.5v597q0 29 17.5 44t44.5 15t45 -15t18 -44v-597q0 -29 -18 -44.5t-45 -15.5t-44.5 15.5zM239 304q-20 18 -20 49q0 30 20 48t54 18q33 0 53.5 -18t20.5 -48q0 -31 -20 -49t-54 -18t-54 18z" />
    <glyph glyph-name="Lslash" unicode="&#x141;" horiz-adv-x="578" 
d="M569 53q0 -53 -60 -53h-348q-29 0 -45 16t-16 44v203l-23 -13q-15 -9 -30 -9q-20 0 -33.5 14.5t-13.5 33.5q0 30 29 45l71 41v271q0 29 17.5 46.5t46.5 17.5q30 0 47 -17.5t17 -46.5v-197l117 67q15 9 30 9q20 0 33.5 -14.5t13.5 -33.5q0 -27 -28 -44l-166 -96v-231h281
q60 0 60 -53z" />
    <glyph glyph-name="lslash" unicode="&#x142;" horiz-adv-x="326" 
d="M278 470q20 0 33.5 -14.5t13.5 -33.5q0 -28 -29 -45l-71 -41v-282q0 -29 -17.5 -44.5t-44.5 -15.5t-45 15.5t-18 44.5v209l-22 -13q-17 -9 -31 -9q-20 0 -33.5 14.5t-13.5 33.5q0 28 29 45l71 41v276q0 29 18 44t45 15t44.5 -15t17.5 -44v-203l23 13q17 9 30 9z" />
    <glyph glyph-name="Nacute" unicode="&#x143;" horiz-adv-x="747" 
d="M654.5 692.5q16.5 -17.5 16.5 -46.5v-587q0 -29 -17 -47t-44 -18q-32 0 -49 23l-365 475v-433q0 -29 -16 -47t-44 -18t-44 18t-16 47v587q0 29 17 46.5t45 17.5q31 0 48 -23l364 -473v432q0 29 16.5 46.5t43.5 17.5q28 0 44.5 -17.5zM373 760q-13 0 -22 8.5t-9 19.5
t11 22l91 94q19 20 43 20q20 0 34.5 -14.5t14.5 -33.5q0 -13 -8.5 -25t-25.5 -21l-113 -66q-8 -4 -16 -4z" />
    <glyph glyph-name="nacute" unicode="&#x144;" horiz-adv-x="585" 
d="M480 451q43 -50 43 -151v-246q0 -28 -16.5 -44t-45.5 -16t-46 16t-17 44v239q0 57 -21.5 83t-67.5 26q-54 0 -86.5 -34t-32.5 -91v-223q0 -28 -17 -44t-46 -16t-45.5 16t-16.5 44v387q0 26 17 42t46 16q26 0 42.5 -15.5t16.5 -40.5v-27q25 41 67 63t95 22q88 0 131 -50z
M297 548q-14 0 -23.5 9.5t-9.5 22.5q0 11 8 22l97 129q23 30 53 30q22 0 37.5 -15.5t15.5 -36.5q0 -28 -27 -48l-129 -105q-11 -8 -22 -8z" />
    <glyph glyph-name="uni0145" unicode="&#x145;" horiz-adv-x="747" 
d="M654.5 692.5q16.5 -17.5 16.5 -46.5v-587q0 -29 -17 -47t-44 -18q-32 0 -49 23l-365 475v-433q0 -29 -16 -47t-44 -18t-44 18t-16 47v587q0 29 17 46.5t45 17.5q31 0 48 -23l364 -473v432q0 29 16.5 46.5t43.5 17.5q28 0 44.5 -17.5zM426.5 -83q19.5 -20 19.5 -61
q0 -31 -10 -59t-28 -48q-15 -16 -34 -16q-12 0 -21 7t-9 17q0 9 7 19q20 27 24 48h-4q-26 0 -44 14t-18 40q0 27 18 43t46 16q34 0 53.5 -20z" />
    <glyph glyph-name="uni0146" unicode="&#x146;" horiz-adv-x="585" 
d="M480 451q43 -50 43 -151v-246q0 -28 -16.5 -44t-45.5 -16t-46 16t-17 44v239q0 57 -21.5 83t-67.5 26q-54 0 -86.5 -34t-32.5 -91v-223q0 -28 -17 -44t-46 -16t-45.5 16t-16.5 44v387q0 26 17 42t46 16q26 0 42.5 -15.5t16.5 -40.5v-27q25 41 67 63t95 22q88 0 131 -50z
M346.5 -83q19.5 -20 19.5 -61q0 -31 -10 -59t-28 -48q-15 -16 -34 -16q-12 0 -21 7t-9 17q0 9 7 19q20 27 24 48h-4q-26 0 -44 14t-18 40q0 27 18 43t46 16q34 0 53.5 -20z" />
    <glyph glyph-name="Ncaron" unicode="&#x147;" horiz-adv-x="747" 
d="M654.5 692.5q16.5 -17.5 16.5 -46.5v-587q0 -29 -17 -47t-44 -18q-32 0 -49 23l-365 475v-433q0 -29 -16 -47t-44 -18t-44 18t-16 47v587q0 29 17 46.5t45 17.5q31 0 48 -23l364 -473v432q0 29 16.5 46.5t43.5 17.5q28 0 44.5 -17.5zM327 778l-83 77q-15 14 -15 31
q0 15 11 26.5t27 11.5q17 0 31 -14l75 -77l75 77q14 14 31 14q16 0 27.5 -11.5t11.5 -26.5q0 -16 -16 -31l-83 -77q-21 -18 -46 -18q-23 0 -46 18z" />
    <glyph glyph-name="ncaron" unicode="&#x148;" horiz-adv-x="585" 
d="M480 451q43 -50 43 -151v-246q0 -28 -16.5 -44t-45.5 -16t-46 16t-17 44v239q0 57 -21.5 83t-67.5 26q-54 0 -86.5 -34t-32.5 -91v-223q0 -28 -17 -44t-46 -16t-45.5 16t-16.5 44v387q0 26 17 42t46 16q26 0 42.5 -15.5t16.5 -40.5v-27q25 41 67 63t95 22q88 0 131 -50z
M266.5 555.5q-11.5 7.5 -22.5 22.5l-88 118q-9 12 -9 26q0 16 12.5 28t28.5 12q21 0 35 -21l71 -110l71 110q14 21 35 21q16 0 28.5 -12t12.5 -28q0 -12 -9 -26l-88 -118q-11 -15 -22.5 -22.5t-27.5 -7.5t-27.5 7.5z" />
    <glyph glyph-name="napostrophe" unicode="&#x149;" horiz-adv-x="585" 
d="M195 740q20 -20 20 -61q0 -31 -10.5 -58.5t-28.5 -47.5q-13 -16 -34 -16q-12 0 -21 6.5t-9 16.5t8 19q19 25 23 49h-3q-26 0 -44 14t-18 39q0 27 17.5 43t45.5 16q34 0 54 -20zM480 451q43 -50 43 -151v-246q0 -28 -16.5 -44t-45.5 -16t-46 16t-17 44v239q0 57 -21.5 83
t-67.5 26q-54 0 -86.5 -34t-32.5 -91v-223q0 -28 -17 -44t-46 -16t-45.5 16t-16.5 44v387q0 26 17 42t46 16q26 0 42.5 -15.5t16.5 -40.5v-27q25 41 67 63t95 22q88 0 131 -50z" />
    <glyph glyph-name="Eng" unicode="&#x14a;" horiz-adv-x="747" 
d="M654.5 692.5q16.5 -17.5 16.5 -46.5v-625q0 -191 -187 -203l-32 -2q-36 -3 -56.5 10t-20.5 39q0 45 52 49l32 2q44 2 67.5 27t23.5 72v17l-354 460v-433q0 -29 -16.5 -47t-43.5 -18q-28 0 -44 18t-16 47v587q0 29 17 46.5t45 17.5q31 0 48 -23l364 -473v432
q0 29 16.5 46.5t43.5 17.5q28 0 44.5 -17.5z" />
    <glyph glyph-name="eng" unicode="&#x14b;" horiz-adv-x="585" 
d="M480 451q43 -50 43 -151v-300q0 -85 -41 -129.5t-126 -50.5l-28 -2q-36 -2 -55 10t-19 37q0 21 12 32t37 13l28 2q34 2 50.5 21.5t16.5 57.5v309q0 53 -21.5 77.5t-67.5 24.5q-54 0 -86.5 -34t-32.5 -91v-223q0 -28 -17 -44t-46 -16t-45.5 16t-16.5 44v387q0 26 17 42
t46 16q26 0 42.5 -15.5t16.5 -40.5v-28q25 42 67.5 64t94.5 22q88 0 131 -50z" />
    <glyph glyph-name="Omacron" unicode="&#x14c;" horiz-adv-x="779" 
d="M211.5 35q-75.5 44 -116.5 126t-41 192t40.5 191.5t116.5 125.5t179 44t178.5 -44t116 -125.5t40.5 -191.5t-41 -192t-116.5 -126t-177.5 -44q-103 0 -178.5 44zM541.5 161q54.5 67 54.5 192t-54.5 191.5t-151.5 66.5q-98 0 -152.5 -66.5t-54.5 -191.5t54.5 -192
t152.5 -67q97 0 151.5 67zM235.5 812.5q-12.5 10.5 -12.5 29.5q0 20 12.5 30.5t32.5 10.5h242q20 0 32.5 -10.5t12.5 -30.5q0 -19 -12.5 -29.5t-32.5 -10.5h-242q-20 0 -32.5 10.5z" />
    <glyph glyph-name="omacron" unicode="&#x14d;" horiz-adv-x="575" 
d="M156.5 23q-56.5 31 -87.5 89t-31 135t31 134.5t87.5 88.5t131.5 31t131.5 -31t87 -88.5t30.5 -134.5t-30.5 -135t-87 -89t-131.5 -31t-131.5 31zM380 129q32 40 32 118q0 77 -32 117.5t-92 40.5t-92.5 -40.5t-32.5 -117.5q0 -78 32 -118t92 -40q61 0 93 40zM134.5 624.5
q-12.5 10.5 -12.5 29.5q0 20 12.5 30.5t32.5 10.5h242q20 0 32.5 -10.5t12.5 -30.5q0 -19 -12.5 -29.5t-32.5 -10.5h-242q-20 0 -32.5 10.5z" />
    <glyph glyph-name="Obreve" unicode="&#x14e;" horiz-adv-x="779" 
d="M211.5 35q-75.5 44 -116.5 126t-41 192t40.5 191.5t116.5 125.5t179 44t178.5 -44t116 -125.5t40.5 -191.5t-41 -192t-116.5 -126t-177.5 -44q-103 0 -178.5 44zM541.5 161q54.5 67 54.5 192t-54.5 191.5t-151.5 66.5q-98 0 -152.5 -66.5t-54.5 -191.5t54.5 -192
t152.5 -67q97 0 151.5 67zM290 796q-43 21 -63 58q-6 12 -6 23q0 15 10 24t25 9q18 0 34 -16q34 -41 99 -41t99 41q16 16 35 16q15 0 24.5 -9t9.5 -24q0 -11 -6 -23q-20 -37 -63 -58t-99 -21t-99 21z" />
    <glyph glyph-name="obreve" unicode="&#x14f;" horiz-adv-x="575" 
d="M156.5 23q-56.5 31 -87.5 89t-31 135t31 134.5t87.5 88.5t131.5 31t131.5 -31t87 -88.5t30.5 -134.5t-30.5 -135t-87 -89t-131.5 -31t-131.5 31zM380 129q32 40 32 118q0 77 -32 117.5t-92 40.5t-92.5 -40.5t-32.5 -117.5q0 -78 32 -118t92 -40q61 0 93 40zM186.5 604.5
q-45.5 29.5 -64.5 78.5q-3 9 -3 17q0 17 11 27.5t26 10.5q22 0 35 -22q32 -57 97 -57t97 57q13 21 35 21q15 0 26 -10t11 -27q0 -8 -3 -17q-19 -49 -64.5 -78.5t-101.5 -29.5t-101.5 29.5z" />
    <glyph glyph-name="Ohungarumlaut" unicode="&#x150;" horiz-adv-x="779" 
d="M211.5 35q-75.5 44 -116.5 126t-41 192t40.5 191.5t116.5 125.5t179 44t178.5 -44t116 -125.5t40.5 -191.5t-41 -192t-116.5 -126t-177.5 -44q-103 0 -178.5 44zM541.5 161q54.5 67 54.5 192t-54.5 191.5t-151.5 66.5q-98 0 -152.5 -66.5t-54.5 -191.5t54.5 -192
t152.5 -67q97 0 151.5 67zM322 760q-11 0 -19 7.5t-8 19.5q0 8 4 15l43 93q12 29 40 29q18 0 32.5 -13.5t14.5 -31.5q0 -17 -14 -32l-69 -76q-10 -11 -24 -11zM454 760q-11 0 -19 7.5t-8 19.5q0 8 4 15l43 93q12 29 40 29q18 0 32.5 -13t14.5 -31q0 -16 -15 -33l-68 -76
q-10 -11 -24 -11z" />
    <glyph glyph-name="ohungarumlaut" unicode="&#x151;" horiz-adv-x="575" 
d="M156.5 23q-56.5 31 -87.5 89t-31 135t31 134.5t87.5 88.5t131.5 31t131.5 -31t87 -88.5t30.5 -134.5t-30.5 -135t-87 -89t-131.5 -31t-131.5 31zM380 129q32 40 32 118q0 77 -32 117.5t-92 40.5t-92.5 -40.5t-32.5 -117.5q0 -78 32 -118t92 -40q61 0 93 40zM236.5 551.5
q-7.5 -4.5 -14.5 -4.5q-13 0 -21.5 10t-5.5 26l33 134q5 23 19 34.5t31 11.5q18 0 31.5 -12.5t13.5 -31.5q0 -15 -8 -30l-67 -125q-4 -8 -11.5 -12.5zM368.5 551.5q-7.5 -4.5 -14.5 -4.5q-13 0 -21.5 10t-5.5 26l33 134q5 23 19 34.5t31 11.5q18 0 32 -12t14 -31
q0 -14 -9 -31l-67 -125q-4 -8 -11.5 -12.5z" />
    <glyph glyph-name="OE" unicode="&#x152;" horiz-adv-x="1045" 
d="M149.5 92.5q-95.5 92.5 -95.5 260.5q0 167 95.5 259.5t268.5 92.5h538q29 0 44 -13t15 -37q0 -25 -15.5 -38.5t-44.5 -13.5h-299v-194h279q29 0 44.5 -13t15.5 -38q0 -24 -15.5 -37t-44.5 -13h-279v-206h299q29 0 44.5 -13.5t15.5 -38.5q0 -24 -15 -37t-44 -13h-538
q-173 0 -268.5 92.5zM531 603h-105q-122 0 -182.5 -63t-60.5 -187q0 -251 243 -251h105v501z" />
    <glyph glyph-name="oe" unicode="&#x153;" horiz-adv-x="900" 
d="M849.5 121q10.5 -13 10.5 -35q0 -32 -37 -52q-33 -19 -76 -30.5t-80 -11.5q-65 0 -114.5 23.5t-79.5 68.5q-29 -44 -77.5 -68t-110.5 -24q-74 0 -130 31.5t-86.5 89t-30.5 134.5t30.5 134.5t86.5 88.5t130 31q63 0 111 -24t78 -69q29 45 76 69t106 24q61 0 108.5 -29.5
t73.5 -83t26 -123.5q0 -43 -38 -43h-290q6 -69 38.5 -101.5t94.5 -32.5q31 0 54.5 8t53.5 22q13 7 24.5 11.5t20.5 4.5q17 0 27.5 -13zM572.5 381q-30.5 -32 -36.5 -92h221q-3 60 -30 92t-74 32q-50 0 -80.5 -32zM377.5 129q31.5 40 31.5 118q0 77 -31.5 117.5t-91.5 40.5
q-59 0 -91 -40.5t-32 -117.5q0 -78 31.5 -118t91.5 -40t91.5 40z" />
    <glyph glyph-name="Racute" unicode="&#x154;" horiz-adv-x="695" 
d="M652 46q0 -23 -18.5 -38t-43.5 -15q-16 0 -30.5 7.5t-24.5 22.5l-133 202q-20 32 -42.5 45t-58.5 13h-98v-224q0 -30 -17 -47.5t-46 -17.5t-46.5 17.5t-17.5 47.5v585q0 29 16.5 45t45.5 16h250q120 0 182.5 -53.5t62.5 -154.5q0 -82 -46.5 -134.5t-131.5 -67.5
q29 -7 51 -25t43 -50l91 -139q12 -18 12 -35zM477 409.5q34 27.5 34 84.5q0 58 -34 84.5t-107 26.5h-168v-223h168q73 0 107 27.5zM348 760q-13 0 -22 8.5t-9 19.5t11 22l91 94q19 20 43 20q20 0 34.5 -14.5t14.5 -33.5q0 -13 -8.5 -25t-25.5 -21l-113 -66q-8 -4 -16 -4z
" />
    <glyph glyph-name="racute" unicode="&#x155;" horiz-adv-x="383" 
d="M379 488q15 -13 15 -39q0 -27 -13 -40t-47 -17l-30 -3q-59 -6 -86.5 -40t-27.5 -85v-210q0 -29 -18 -44.5t-45 -15.5t-44.5 15.5t-17.5 44.5v387q0 28 17.5 43t43.5 15t42 -14.5t16 -41.5v-40q19 44 56.5 68t83.5 27l14 1q26 2 41 -11zM229 548q-14 0 -23.5 9.5
t-9.5 22.5q0 11 8 22l97 129q23 30 53 30q22 0 37.5 -15.5t15.5 -36.5q0 -28 -27 -48l-129 -105q-11 -8 -22 -8z" />
    <glyph glyph-name="uni0156" unicode="&#x156;" horiz-adv-x="695" 
d="M652 46q0 -23 -18.5 -38t-43.5 -15q-16 0 -30.5 7.5t-24.5 22.5l-133 202q-20 32 -42.5 45t-58.5 13h-98v-224q0 -30 -17 -47.5t-46 -17.5t-46.5 17.5t-17.5 47.5v585q0 29 16.5 45t45.5 16h250q120 0 182.5 -53.5t62.5 -154.5q0 -82 -46.5 -134.5t-131.5 -67.5
q29 -7 51 -25t43 -50l91 -139q12 -18 12 -35zM477 409.5q34 27.5 34 84.5q0 58 -34 84.5t-107 26.5h-168v-223h168q73 0 107 27.5zM401.5 -83q19.5 -20 19.5 -61q0 -31 -10 -59t-28 -48q-15 -16 -34 -16q-12 0 -21 7t-9 17q0 9 7 19q20 27 24 48h-4q-26 0 -44 14t-18 40
q0 27 18 43t46 16q34 0 53.5 -20z" />
    <glyph glyph-name="uni0157" unicode="&#x157;" horiz-adv-x="383" 
d="M379 488q15 -13 15 -39q0 -27 -13 -40t-47 -17l-30 -3q-59 -6 -86.5 -40t-27.5 -85v-210q0 -29 -18 -44.5t-45 -15.5t-44.5 15.5t-17.5 44.5v387q0 28 17.5 43t43.5 15t42 -14.5t16 -41.5v-40q19 44 56.5 68t83.5 27l14 1q26 2 41 -11zM179.5 -83q19.5 -20 19.5 -61
q0 -31 -10 -59t-28 -48q-15 -16 -34 -16q-12 0 -21 7t-9 17q0 9 7 19q20 27 24 48h-4q-26 0 -44 14t-18 40q0 27 18 43t46 16q34 0 53.5 -20z" />
    <glyph glyph-name="Rcaron" unicode="&#x158;" horiz-adv-x="695" 
d="M652 46q0 -23 -18.5 -38t-43.5 -15q-16 0 -30.5 7.5t-24.5 22.5l-133 202q-20 32 -42.5 45t-58.5 13h-98v-224q0 -30 -17 -47.5t-46 -17.5t-46.5 17.5t-17.5 47.5v585q0 29 16.5 45t45.5 16h250q120 0 182.5 -53.5t62.5 -154.5q0 -82 -46.5 -134.5t-131.5 -67.5
q29 -7 51 -25t43 -50l91 -139q12 -18 12 -35zM477 409.5q34 27.5 34 84.5q0 58 -34 84.5t-107 26.5h-168v-223h168q73 0 107 27.5zM302 778l-83 77q-15 14 -15 31q0 15 11 26.5t27 11.5q17 0 31 -14l75 -77l75 77q14 14 31 14q16 0 27.5 -11.5t11.5 -26.5q0 -16 -16 -31
l-83 -77q-21 -18 -46 -18q-23 0 -46 18z" />
    <glyph glyph-name="rcaron" unicode="&#x159;" horiz-adv-x="383" 
d="M379 488q15 -13 15 -39q0 -27 -13 -40t-47 -17l-30 -3q-59 -6 -86.5 -40t-27.5 -85v-210q0 -29 -18 -44.5t-45 -15.5t-44.5 15.5t-17.5 44.5v387q0 28 17.5 43t43.5 15t42 -14.5t16 -41.5v-40q19 44 56.5 68t83.5 27l14 1q26 2 41 -11zM198.5 555.5q-11.5 7.5 -22.5 22.5
l-88 118q-9 12 -9 26q0 16 12.5 28t28.5 12q21 0 35 -21l71 -110l71 110q14 21 35 21q16 0 28.5 -12t12.5 -28q0 -12 -9 -26l-88 -118q-11 -15 -22.5 -22.5t-27.5 -7.5t-27.5 7.5z" />
    <glyph glyph-name="Sacute" unicode="&#x15a;" horiz-adv-x="638" 
d="M174.5 11.5q-68.5 20.5 -111.5 55.5q-23 17 -23 48q0 21 12.5 36.5t29.5 15.5q18 0 41 -14q43 -31 90 -45t104 -14q73 0 112 25.5t39 74.5q0 38 -36.5 58.5t-121.5 39.5q-88 19 -143 44t-83 64t-28 99q0 62 35 111t97.5 76.5t140.5 27.5q143 0 233 -76q13 -11 18.5 -21.5
t5.5 -26.5q0 -21 -12.5 -36.5t-29.5 -15.5q-10 0 -18.5 3t-22.5 11q-41 30 -79.5 44.5t-94.5 14.5q-68 0 -107.5 -27.5t-39.5 -76.5q0 -41 35 -63t119 -41q89 -20 144.5 -44.5t85 -62.5t29.5 -95q0 -62 -34.5 -109.5t-97 -74t-143.5 -26.5q-77 0 -145.5 20.5zM321 760
q-13 0 -22 8.5t-9 19.5t11 22l91 94q19 20 43 20q20 0 34.5 -14.5t14.5 -33.5q0 -13 -8.5 -25t-25.5 -21l-113 -66q-8 -4 -16 -4z" />
    <glyph glyph-name="sacute" unicode="&#x15b;" horiz-adv-x="485" 
d="M66 35q-32 19 -32 54q0 20 11 32.5t27 12.5q17 0 47 -16q32 -15 58.5 -23t67.5 -8q42 0 65.5 14t23.5 39q0 17 -9.5 27t-34 18.5t-74.5 19.5q-89 18 -127.5 51t-38.5 91q0 44 26 79.5t71.5 55t103.5 19.5q42 0 81 -10.5t70 -30.5q32 -20 32 -53q0 -20 -11 -33.5
t-27 -13.5q-11 0 -21.5 4.5t-26.5 13.5q-29 15 -50 22.5t-52 7.5q-37 0 -58.5 -15t-21.5 -41q0 -25 22 -38t85 -26q67 -14 105 -32t54.5 -45t16.5 -69q0 -68 -56.5 -109t-150.5 -41q-109 0 -176 43zM254 548q-14 0 -23.5 9.5t-9.5 22.5q0 11 8 22l97 129q23 30 53 30
q22 0 37.5 -15.5t15.5 -36.5q0 -28 -27 -48l-129 -105q-11 -8 -22 -8z" />
    <glyph glyph-name="Scircumflex" unicode="&#x15c;" horiz-adv-x="638" 
d="M174.5 11.5q-68.5 20.5 -111.5 55.5q-23 17 -23 48q0 21 12.5 36.5t29.5 15.5q18 0 41 -14q43 -31 90 -45t104 -14q73 0 112 25.5t39 74.5q0 38 -36.5 58.5t-121.5 39.5q-88 19 -143 44t-83 64t-28 99q0 62 35 111t97.5 76.5t140.5 27.5q143 0 233 -76q13 -11 18.5 -21.5
t5.5 -26.5q0 -21 -12.5 -36.5t-29.5 -15.5q-10 0 -18.5 3t-22.5 11q-41 30 -79.5 44.5t-94.5 14.5q-68 0 -107.5 -27.5t-39.5 -76.5q0 -41 35 -63t119 -41q89 -20 144.5 -44.5t85 -62.5t29.5 -95q0 -62 -34.5 -109.5t-97 -74t-143.5 -26.5q-77 0 -145.5 20.5zM215 760
q-16 0 -27.5 11.5t-11.5 26.5q0 17 16 30l83 77q21 18 46 18t46 -18l83 -77q15 -14 15 -31q0 -15 -11 -26t-27 -11q-17 0 -31 14l-75 77l-75 -77q-14 -14 -31 -14z" />
    <glyph glyph-name="scircumflex" unicode="&#x15d;" horiz-adv-x="485" 
d="M66 35q-32 19 -32 54q0 20 11 32.5t27 12.5q17 0 47 -16q32 -15 58.5 -23t67.5 -8q42 0 65.5 14t23.5 39q0 17 -9.5 27t-34 18.5t-74.5 19.5q-89 18 -127.5 51t-38.5 91q0 44 26 79.5t71.5 55t103.5 19.5q42 0 81 -10.5t70 -30.5q32 -20 32 -53q0 -20 -11 -33.5
t-27 -13.5q-11 0 -21.5 4.5t-26.5 13.5q-29 15 -50 22.5t-52 7.5q-37 0 -58.5 -15t-21.5 -41q0 -25 22 -38t85 -26q67 -14 105 -32t54.5 -45t16.5 -69q0 -68 -56.5 -109t-150.5 -41q-109 0 -176 43zM145 548q-16 0 -28.5 12t-12.5 28q0 13 9 26l88 119q12 15 23 22t27 7
q17 0 28 -7t22 -23l88 -118q9 -12 9 -26q0 -16 -12.5 -28t-28.5 -12q-21 0 -35 21l-71 110l-71 -110q-14 -21 -35 -21z" />
    <glyph glyph-name="Scedilla" unicode="&#x15e;" horiz-adv-x="638" 
d="M564 96q-31 -46 -88 -73t-132 -31l-4 -34q16 2 23 2q31 0 52.5 -18.5t21.5 -50.5q0 -38 -33.5 -62t-94.5 -24q-42 0 -70 10q-9 4 -14 11t-5 16q0 14 8.5 22.5t22.5 4.5q34 -8 56 -8q50 0 50 30q0 10 -7 16t-20 6q-10 0 -26 -3.5t-20 -3.5q-9 0 -14.5 5.5t-4.5 14.5l8 67
q-64 5 -119 24.5t-91 49.5q-23 17 -23 48q0 21 12.5 36.5t29.5 15.5q18 0 41 -14q43 -31 90 -45t104 -14q73 0 112 25.5t39 74.5q0 38 -36.5 58.5t-121.5 39.5q-88 19 -143 44t-83 64t-28 99q0 62 35 111t97.5 76.5t140.5 27.5q143 0 233 -76q13 -11 18.5 -21.5t5.5 -26.5
q0 -21 -12.5 -36.5t-29.5 -15.5q-10 0 -18.5 3t-22.5 11q-41 30 -79.5 44.5t-94.5 14.5q-68 0 -107.5 -27.5t-39.5 -76.5q0 -41 35 -63t119 -41q89 -20 144.5 -44.5t85 -62.5t29.5 -95q0 -59 -31 -105z" />
    <glyph glyph-name="scedilla" unicode="&#x15f;" horiz-adv-x="485" 
d="M400 38q-49 -40 -133 -45l-4 -35q16 2 23 2q31 0 52.5 -18.5t21.5 -50.5q0 -38 -33.5 -62t-94.5 -24q-42 0 -70 10q-9 4 -14 11t-5 16q0 14 8.5 22.5t22.5 4.5q34 -8 56 -8q50 0 50 30q0 10 -7 16t-20 6q-10 0 -26 -3.5t-20 -3.5q-9 0 -14.5 5.5t-4.5 14.5l8 68
q-79 8 -130 41q-32 19 -32 54q0 20 11 32.5t27 12.5q17 0 47 -16q32 -15 58.5 -23t67.5 -8q42 0 65.5 14t23.5 39q0 17 -9.5 27t-34 18.5t-74.5 19.5q-89 18 -127.5 51t-38.5 91q0 44 26 79.5t71.5 55t103.5 19.5q42 0 81 -10.5t70 -30.5q32 -20 32 -53q0 -20 -11 -33.5
t-27 -13.5q-11 0 -21.5 4.5t-26.5 13.5q-29 15 -50 22.5t-52 7.5q-37 0 -58.5 -15t-21.5 -41q0 -25 22 -38t85 -26q67 -14 105 -32t54.5 -45t16.5 -69q0 -64 -49 -104z" />
    <glyph glyph-name="Scaron" unicode="&#x160;" horiz-adv-x="638" 
d="M174.5 11.5q-68.5 20.5 -111.5 55.5q-23 17 -23 48q0 21 12.5 36.5t29.5 15.5q18 0 41 -14q43 -31 90 -45t104 -14q73 0 112 25.5t39 74.5q0 38 -36.5 58.5t-121.5 39.5q-88 19 -143 44t-83 64t-28 99q0 62 35 111t97.5 76.5t140.5 27.5q143 0 233 -76q13 -11 18.5 -21.5
t5.5 -26.5q0 -21 -12.5 -36.5t-29.5 -15.5q-10 0 -18.5 3t-22.5 11q-41 30 -79.5 44.5t-94.5 14.5q-68 0 -107.5 -27.5t-39.5 -76.5q0 -41 35 -63t119 -41q89 -20 144.5 -44.5t85 -62.5t29.5 -95q0 -62 -34.5 -109.5t-97 -74t-143.5 -26.5q-77 0 -145.5 20.5zM275 778
l-83 77q-15 14 -15 31q0 15 11 26.5t27 11.5q17 0 31 -14l75 -77l75 77q14 14 31 14q16 0 27.5 -11.5t11.5 -26.5q0 -16 -16 -31l-83 -77q-21 -18 -46 -18q-23 0 -46 18z" />
    <glyph glyph-name="scaron" unicode="&#x161;" horiz-adv-x="485" 
d="M66 35q-32 19 -32 54q0 20 11 32.5t27 12.5q17 0 47 -16q32 -15 58.5 -23t67.5 -8q42 0 65.5 14t23.5 39q0 17 -9.5 27t-34 18.5t-74.5 19.5q-89 18 -127.5 51t-38.5 91q0 44 26 79.5t71.5 55t103.5 19.5q42 0 81 -10.5t70 -30.5q32 -20 32 -53q0 -20 -11 -33.5
t-27 -13.5q-11 0 -21.5 4.5t-26.5 13.5q-29 15 -50 22.5t-52 7.5q-37 0 -58.5 -15t-21.5 -41q0 -25 22 -38t85 -26q67 -14 105 -32t54.5 -45t16.5 -69q0 -68 -56.5 -109t-150.5 -41q-109 0 -176 43zM223.5 555.5q-11.5 7.5 -22.5 22.5l-88 118q-9 12 -9 26q0 16 12.5 28
t28.5 12q21 0 35 -21l71 -110l71 110q14 21 35 21q16 0 28.5 -12t12.5 -28q0 -12 -9 -26l-88 -118q-11 -15 -22.5 -22.5t-27.5 -7.5t-27.5 7.5z" />
    <glyph glyph-name="uni0162" unicode="&#x162;" horiz-adv-x="613" 
d="M613 652q0 -53 -60 -53h-182v-540q0 -22 -10 -37t-27 -22l-5 -43q12 3 24 3q30 0 52 -18.5t22 -50.5q0 -38 -34 -62t-95 -24q-42 0 -70 10q-9 4 -14 11t-5 16q0 14 8.5 22.5t22.5 4.5q36 -8 56 -8q50 0 50 30q0 10 -7 16t-20 6q-10 0 -26 -3.5t-20 -3.5q-9 0 -14.5 5.5
t-4.5 14.5l10 83q-22 17 -22 50v540h-182q-60 0 -60 53t60 53h493q60 0 60 -53z" />
    <glyph glyph-name="uni0163" unicode="&#x163;" horiz-adv-x="369" 
d="M260 -2l-5 -40q16 2 23 2q31 0 52.5 -18.5t21.5 -50.5q0 -38 -33.5 -62t-94.5 -24q-42 0 -70 10q-9 4 -14 11t-5 16q0 14 8.5 22.5t22.5 4.5q34 -8 56 -8q50 0 50 30q0 10 -7 16t-20 6q-10 0 -26 -3.5t-20 -3.5q-9 0 -14.5 5.5t-4.5 14.5l10 88q-91 39 -91 163v218h-50
q-27 0 -41.5 12t-14.5 35t14.5 35t41.5 12h50v92q0 27 17 43t46 16q28 0 45 -16t17 -43v-92h85q27 0 41.5 -12t14.5 -35t-14.5 -35t-41.5 -12h-85v-227q0 -74 68 -79l27 -2q50 -3 50 -45q0 -24 -19.5 -36.5t-55.5 -10.5l-27 2q-5 0 -7 1z" />
    <glyph glyph-name="Tcaron" unicode="&#x164;" horiz-adv-x="613" 
d="M259.5 12.5q-17.5 17.5 -17.5 46.5v540h-182q-60 0 -60 53t60 53h493q60 0 60 -53t-60 -53h-182v-540q0 -29 -17.5 -46.5t-46.5 -17.5q-30 0 -47.5 17.5zM261 778l-83 77q-15 14 -15 31q0 15 11 26.5t27 11.5q17 0 31 -14l75 -77l75 77q14 14 31 14q16 0 27.5 -11.5
t11.5 -26.5q0 -16 -16 -31l-83 -77q-21 -18 -46 -18q-23 0 -46 18z" />
    <glyph glyph-name="tcaron" unicode="&#x165;" horiz-adv-x="369" 
d="M285 700q16 11 38 11q21 0 37 -10t16 -28q0 -4 -2 -12l-35 -119q-4 -10 -13.5 -15.5t-21.5 -5.5q-14 0 -24.5 7t-10.5 19v122q0 20 16 31zM369 42q0 -24 -19.5 -36.5t-55.5 -10.5l-27 2q-168 12 -168 180v218h-50q-27 0 -41.5 12t-14.5 35t14.5 35t41.5 12h50v92
q0 27 17 43t46 16q28 0 45 -16t17 -43v-92h85q27 0 41.5 -12t14.5 -35t-14.5 -35t-41.5 -12h-85v-227q0 -74 68 -79l27 -2q50 -3 50 -45z" />
    <glyph glyph-name="Tbar" unicode="&#x166;" horiz-adv-x="613" 
d="M613 652q0 -53 -60 -53h-182v-193h93q27 0 42 -13t15 -36q0 -24 -15 -37t-42 -13h-93v-248q0 -29 -17.5 -46.5t-46.5 -17.5q-30 0 -47.5 17.5t-17.5 46.5v248h-92q-28 0 -43 13t-15 37q0 23 15 36t43 13h92v193h-182q-60 0 -60 53t60 53h493q60 0 60 -53z" />
    <glyph glyph-name="tbar" unicode="&#x167;" horiz-adv-x="379" 
d="M374 42q0 -24 -19.5 -36.5t-55.5 -10.5l-27 2q-168 12 -168 180v59h-34q-24 0 -38 11.5t-14 32.5t14 33t38 12h34v70h-50q-27 0 -41.5 12t-14.5 35t14.5 35t41.5 12h50v92q0 27 17 43t46 16q28 0 45 -16t17 -43v-92h85q27 0 41.5 -12t14.5 -35t-14.5 -35t-41.5 -12h-85
v-70h69q24 0 38 -12t14 -33t-14 -32.5t-38 -11.5h-69v-68q0 -74 68 -79l27 -2q50 -3 50 -45z" />
    <glyph glyph-name="Utilde" unicode="&#x168;" horiz-adv-x="733" 
d="M147 66q-75 75 -75 219v361q0 29 17 46.5t46 17.5t46 -17.5t17 -46.5v-368q0 -91 43 -137.5t126 -46.5q82 0 125 47t43 137v368q0 29 17 46.5t46 17.5t46 -17.5t17 -46.5v-361q0 -143 -75 -218.5t-219 -75.5q-145 0 -220 75zM405.5 788.5q-17.5 4.5 -43.5 13.5
q-18 6 -35.5 11t-31.5 5q-13 0 -20.5 -4.5t-17.5 -14.5q-9 -9 -14 -12.5t-14 -3.5q-13 0 -20.5 8.5t-7.5 22.5q0 19 12 39.5t33.5 34.5t47.5 14q17 0 34.5 -4.5t43.5 -13.5q18 -6 35.5 -11t31.5 -5q13 0 20.5 4.5t17.5 14.5q9 9 14 12.5t14 3.5q13 0 20.5 -8t7.5 -22
q0 -19 -12 -40t-33.5 -35t-47.5 -14q-17 0 -34.5 4.5z" />
    <glyph glyph-name="utilde" unicode="&#x169;" horiz-adv-x="579" 
d="M497 483q17 -16 17 -43v-388q0 -26 -17.5 -42t-45.5 -16q-27 0 -43 15t-16 41v25q-23 -40 -62 -61.5t-88 -21.5q-180 0 -180 202v246q0 27 17 43t45 16q29 0 46 -16t17 -43v-247q0 -52 21 -77t66 -25q52 0 83.5 34.5t31.5 91.5v223q0 27 17 43t45 16q29 0 46 -16z
M326.5 592q-17.5 8 -44.5 24q-22 13 -35 19t-24 6q-16 0 -25.5 -8t-19.5 -23q-8 -12 -14 -17.5t-15 -5.5q-11 0 -18.5 9.5t-7.5 24.5q0 20 12 44.5t33.5 42t47.5 17.5q18 0 35.5 -8t44.5 -24q22 -13 35 -19t24 -6q16 0 25.5 8t19.5 23q8 12 14 17.5t15 5.5q12 0 19 -9.5
t7 -24.5q0 -20 -12 -44.5t-33.5 -42t-47.5 -17.5q-18 0 -35.5 8z" />
    <glyph glyph-name="Umacron" unicode="&#x16a;" horiz-adv-x="733" 
d="M147 66q-75 75 -75 219v361q0 29 17 46.5t46 17.5t46 -17.5t17 -46.5v-368q0 -91 43 -137.5t126 -46.5q82 0 125 47t43 137v368q0 29 17 46.5t46 17.5t46 -17.5t17 -46.5v-361q0 -143 -75 -218.5t-219 -75.5q-145 0 -220 75zM213.5 812.5q-12.5 10.5 -12.5 29.5
q0 20 12.5 30.5t32.5 10.5h242q20 0 32.5 -10.5t12.5 -30.5q0 -19 -12.5 -29.5t-32.5 -10.5h-242q-20 0 -32.5 10.5z" />
    <glyph glyph-name="umacron" unicode="&#x16b;" horiz-adv-x="579" 
d="M497 483q17 -16 17 -43v-388q0 -26 -17.5 -42t-45.5 -16q-27 0 -43 15t-16 41v25q-23 -40 -62 -61.5t-88 -21.5q-180 0 -180 202v246q0 27 17 43t45 16q29 0 46 -16t17 -43v-247q0 -52 21 -77t66 -25q52 0 83.5 34.5t31.5 91.5v223q0 27 17 43t45 16q29 0 46 -16z
M135.5 624.5q-12.5 10.5 -12.5 29.5q0 20 12.5 30.5t32.5 10.5h242q20 0 32.5 -10.5t12.5 -30.5q0 -19 -12.5 -29.5t-32.5 -10.5h-242q-20 0 -32.5 10.5z" />
    <glyph glyph-name="Ubreve" unicode="&#x16c;" horiz-adv-x="733" 
d="M147 66q-75 75 -75 219v361q0 29 17 46.5t46 17.5t46 -17.5t17 -46.5v-368q0 -91 43 -137.5t126 -46.5q82 0 125 47t43 137v368q0 29 17 46.5t46 17.5t46 -17.5t17 -46.5v-361q0 -143 -75 -218.5t-219 -75.5q-145 0 -220 75zM268 796q-43 21 -63 58q-6 12 -6 23
q0 15 10 24t25 9q18 0 34 -16q34 -41 99 -41t99 41q16 16 35 16q15 0 24.5 -9t9.5 -24q0 -11 -6 -23q-20 -37 -63 -58t-99 -21t-99 21z" />
    <glyph glyph-name="ubreve" unicode="&#x16d;" horiz-adv-x="579" 
d="M497 483q17 -16 17 -43v-388q0 -26 -17.5 -42t-45.5 -16q-27 0 -43 15t-16 41v25q-23 -40 -62 -61.5t-88 -21.5q-180 0 -180 202v246q0 27 17 43t45 16q29 0 46 -16t17 -43v-247q0 -52 21 -77t66 -25q52 0 83.5 34.5t31.5 91.5v223q0 27 17 43t45 16q29 0 46 -16z
M187.5 604.5q-45.5 29.5 -64.5 78.5q-3 9 -3 17q0 17 11 27.5t26 10.5q22 0 35 -22q32 -57 97 -57t97 57q13 21 35 21q15 0 26 -10t11 -27q0 -8 -3 -17q-19 -49 -64.5 -78.5t-101.5 -29.5t-101.5 29.5z" />
    <glyph glyph-name="Uring" unicode="&#x16e;" horiz-adv-x="733" 
d="M147 66q-75 75 -75 219v361q0 29 17 46.5t46 17.5t46 -17.5t17 -46.5v-368q0 -91 43 -137.5t126 -46.5q82 0 125 47t43 137v368q0 29 17 46.5t46 17.5t46 -17.5t17 -46.5v-361q0 -143 -75 -218.5t-219 -75.5q-145 0 -220 75zM292 790q-31 30 -31 74t31 74.5t75 30.5
t75 -30.5t31 -74.5t-31 -74t-75 -30t-75 30zM399 830.5q13 13.5 13 33.5t-13 33.5t-32 13.5t-32 -13.5t-13 -33.5t13 -33.5t32 -13.5t32 13.5z" />
    <glyph glyph-name="uring" unicode="&#x16f;" horiz-adv-x="579" 
d="M497 483q17 -16 17 -43v-388q0 -26 -17.5 -42t-45.5 -16q-27 0 -43 15t-16 41v25q-23 -40 -62 -61.5t-88 -21.5q-180 0 -180 202v246q0 27 17 43t45 16q29 0 46 -16t17 -43v-247q0 -52 21 -77t66 -25q52 0 83.5 34.5t31.5 91.5v223q0 27 17 43t45 16q29 0 46 -16z
M214 582q-31 30 -31 74t31 74t75 30t75 -30t31 -74t-31 -74t-75 -30t-75 30zM321 622.5q13 13.5 13 33.5t-13 33.5t-32 13.5t-32 -13.5t-13 -33.5t13 -33.5t32 -13.5t32 13.5z" />
    <glyph glyph-name="Uhungarumlaut" unicode="&#x170;" horiz-adv-x="733" 
d="M147 66q-75 75 -75 219v361q0 29 17 46.5t46 17.5t46 -17.5t17 -46.5v-368q0 -91 43 -137.5t126 -46.5q82 0 125 47t43 137v368q0 29 17 46.5t46 17.5t46 -17.5t17 -46.5v-361q0 -143 -75 -218.5t-219 -75.5q-145 0 -220 75zM300 760q-11 0 -19 7.5t-8 19.5q0 8 4 15
l43 93q12 29 40 29q18 0 32.5 -13.5t14.5 -31.5q0 -17 -14 -32l-69 -76q-10 -11 -24 -11zM432 760q-11 0 -19 7.5t-8 19.5q0 8 4 15l43 93q12 29 40 29q18 0 32.5 -13t14.5 -31q0 -16 -15 -33l-68 -76q-10 -11 -24 -11z" />
    <glyph glyph-name="uhungarumlaut" unicode="&#x171;" horiz-adv-x="579" 
d="M497 483q17 -16 17 -43v-388q0 -26 -17.5 -42t-45.5 -16q-27 0 -43 15t-16 41v25q-23 -40 -62 -61.5t-88 -21.5q-180 0 -180 202v246q0 27 17 43t45 16q29 0 46 -16t17 -43v-247q0 -52 21 -77t66 -25q52 0 83.5 34.5t31.5 91.5v223q0 27 17 43t45 16q29 0 46 -16z
M237.5 551.5q-7.5 -4.5 -14.5 -4.5q-13 0 -21.5 10t-5.5 26l33 134q5 23 19 34.5t31 11.5q18 0 31.5 -12.5t13.5 -31.5q0 -15 -8 -30l-67 -125q-4 -8 -11.5 -12.5zM369.5 551.5q-7.5 -4.5 -14.5 -4.5q-13 0 -21.5 10t-5.5 26l33 134q5 23 19 34.5t31 11.5q18 0 32 -12
t14 -31q0 -14 -9 -31l-67 -125q-4 -8 -11.5 -12.5z" />
    <glyph glyph-name="Uogonek" unicode="&#x172;" horiz-adv-x="733" 
d="M644 692.5q17 -17.5 17 -46.5v-361q0 -112 -46 -182.5t-135 -96.5q-70 -19 -70 -75q0 -26 15 -41.5t41 -15.5q25 0 48 9q8 2 10 2q11 0 18 -8.5t7 -20.5q0 -20 -17 -30q-37 -21 -83 -21q-55 0 -89 30.5t-34 77.5q0 46 33 78q-141 2 -214 77t-73 217v361q0 29 17 46.5
t46 17.5t46 -17.5t17 -46.5v-368q0 -91 43 -137.5t126 -46.5q82 0 125 47t43 137v368q0 29 17 46.5t46 17.5t46 -17.5z" />
    <glyph glyph-name="uogonek" unicode="&#x173;" horiz-adv-x="579" 
d="M535 -115q11 0 17.5 -8.5t6.5 -20.5q0 -20 -17 -30q-37 -21 -83 -21q-55 0 -89 30.5t-34 79.5q0 32 16.5 59t47.5 45q-8 14 -8 31v25q-23 -40 -62 -61.5t-88 -21.5q-180 0 -180 202v246q0 27 17 43t45 16q29 0 46 -16t17 -43v-247q0 -52 21 -77t64 -25q53 0 85 34.5
t32 91.5v223q0 27 17 43t45 16q29 0 46 -16t17 -43v-388q0 -38 -33 -52q-61 -21 -61 -69q0 -26 15.5 -41.5t41.5 -15.5q24 0 48 9q6 2 10 2z" />
    <glyph glyph-name="Wcircumflex" unicode="&#x174;" horiz-adv-x="1110" 
d="M982.5 701q15.5 10 34.5 10q24 0 41.5 -15t17.5 -40q0 -9 -5 -26l-215 -595q-8 -20 -26.5 -31t-40.5 -11t-41 11t-26 31l-166 471l-169 -471q-8 -20 -26.5 -31t-40.5 -11t-40.5 11t-25.5 31l-215 595q-5 15 -5 26q0 25 18.5 40t43.5 15q20 0 36 -10t23 -30l170 -489
l175 486q7 20 23 31.5t35 11.5t35.5 -11.5t23.5 -32.5l170 -491l173 495q7 20 22.5 30zM449 760q-16 0 -27.5 11.5t-11.5 26.5q0 17 16 30l83 77q21 18 46 18t46 -18l83 -77q15 -14 15 -31q0 -15 -11 -26t-27 -11q-17 0 -31 14l-75 77l-75 -77q-14 -14 -31 -14z" />
    <glyph glyph-name="wcircumflex" unicode="&#x175;" horiz-adv-x="856" 
d="M746.5 489q13.5 9 29.5 9q23 0 41.5 -15.5t18.5 -38.5q0 -13 -5 -23l-165 -387q-8 -19 -24.5 -29t-36.5 -10q-19 0 -35.5 10t-24.5 29l-119 286l-115 -286q-8 -19 -24.5 -29t-36.5 -10q-19 0 -36 10t-25 29l-164 387q-5 13 -5 22q0 23 20 39.5t44 16.5q17 0 31 -9t21 -27
l118 -305l121 302q8 19 23 28.5t33 9.5t33 -9.5t23 -28.5l122 -303l117 305q7 18 20.5 27zM322 548q-16 0 -28.5 12t-12.5 28q0 13 9 26l88 119q12 15 23 22t27 7q17 0 28 -7t22 -23l88 -118q9 -12 9 -26q0 -16 -12.5 -28t-28.5 -12q-21 0 -35 21l-71 110l-71 -110
q-14 -21 -35 -21z" />
    <glyph glyph-name="Ycircumflex" unicode="&#x176;" horiz-adv-x="623" 
d="M559 710q23 0 41 -17.5t18 -41.5q0 -20 -15 -38l-227 -277v-277q0 -31 -18 -48t-46 -17q-29 0 -47 17t-18 48v277l-227 277q-15 18 -15 38q0 24 18 41.5t41 17.5q25 0 43 -22l205 -254l204 254q18 22 43 22zM205 760q-16 0 -27.5 11.5t-11.5 26.5q0 17 16 30l83 77
q21 18 46 18t46 -18l83 -77q15 -14 15 -31q0 -15 -11 -26t-27 -11q-17 0 -31 14l-75 77l-75 -77q-14 -14 -31 -14z" />
    <glyph glyph-name="ycircumflex" unicode="&#x177;" horiz-adv-x="526" 
d="M427.5 489.5q13.5 8.5 29.5 8.5q23 0 41.5 -15.5t18.5 -38.5q0 -11 -6 -23l-273 -572q-17 -34 -53 -34q-23 0 -40.5 14.5t-17.5 36.5q0 11 6 25l68 143l-186 387q-5 10 -5 23q0 23 19.5 39t44.5 16q17 0 31 -8.5t22 -26.5l140 -309l139 308q8 18 21.5 26.5zM158 548
q-16 0 -28.5 12t-12.5 28q0 13 9 26l88 119q12 15 23 22t27 7q17 0 28 -7t22 -23l88 -118q9 -12 9 -26q0 -16 -12.5 -28t-28.5 -12q-21 0 -35 21l-71 110l-71 -110q-14 -21 -35 -21z" />
    <glyph glyph-name="Ydieresis" unicode="&#x178;" horiz-adv-x="623" 
d="M559 710q23 0 41 -17.5t18 -41.5q0 -20 -15 -38l-227 -277v-277q0 -31 -18 -48t-46 -17q-29 0 -47 17t-18 48v277l-227 277q-15 18 -15 38q0 24 18 41.5t41 17.5q25 0 43 -22l205 -254l204 254q18 22 43 22zM172 797.5q-18 17.5 -18 45.5t18 45t47 17t47.5 -17t18.5 -45
t-18.5 -45.5t-47.5 -17.5t-47 17.5zM356 797.5q-18 17.5 -18 45.5t18 45t47 17q28 0 46.5 -17t18.5 -45t-18 -45.5t-47 -17.5t-47 17.5z" />
    <glyph glyph-name="Zacute" unicode="&#x179;" horiz-adv-x="602" 
d="M579 52q0 -52 -60 -52h-426q-26 0 -41.5 15.5t-15.5 39.5t16 46l358 501h-313q-60 0 -60 51q0 52 60 52h413q26 0 41.5 -15.5t15.5 -38.5t-17 -46l-358 -502h327q60 0 60 -51zM302 760q-13 0 -22 8.5t-9 19.5t11 22l91 94q19 20 43 20q20 0 34.5 -14.5t14.5 -33.5
q0 -13 -8.5 -25t-25.5 -21l-113 -66q-8 -4 -16 -4z" />
    <glyph glyph-name="zacute" unicode="&#x17a;" horiz-adv-x="510" 
d="M485 47q0 -22 -14 -34.5t-42 -12.5h-334q-25 0 -41 16t-16 38q0 23 18 44l257 297h-223q-28 0 -42 12t-14 35t14 35t42 12h323q26 0 41.5 -15.5t15.5 -38.5q0 -24 -17 -44l-258 -297h234q56 0 56 -47zM265 548q-14 0 -23.5 9.5t-9.5 22.5q0 11 8 22l97 129q23 30 53 30
q22 0 37.5 -15.5t15.5 -36.5q0 -28 -27 -48l-129 -105q-11 -8 -22 -8z" />
    <glyph glyph-name="Zdotaccent" unicode="&#x17b;" horiz-adv-x="602" 
d="M579 52q0 -52 -60 -52h-426q-26 0 -41.5 15.5t-15.5 39.5t16 46l358 501h-313q-60 0 -60 51q0 52 60 52h413q26 0 41.5 -15.5t15.5 -38.5t-17 -46l-358 -502h327q60 0 60 -51zM248 794.5q-20 18.5 -20 48.5t20 48t54 18q33 0 53.5 -18t20.5 -48t-20 -48.5t-54 -18.5
t-54 18.5z" />
    <glyph glyph-name="zdotaccent" unicode="&#x17c;" horiz-adv-x="510" 
d="M485 47q0 -22 -14 -34.5t-42 -12.5h-334q-25 0 -41 16t-16 38q0 23 18 44l257 297h-223q-28 0 -42 12t-14 35t14 35t42 12h323q26 0 41.5 -15.5t15.5 -38.5q0 -24 -17 -44l-258 -297h234q56 0 56 -47zM208 606.5q-20 18.5 -20 48.5t20 48t54 18q33 0 53.5 -18t20.5 -48
t-20 -48.5t-54 -18.5t-54 18.5z" />
    <glyph glyph-name="Zcaron" unicode="&#x17d;" horiz-adv-x="602" 
d="M579 52q0 -52 -60 -52h-426q-26 0 -41.5 15.5t-15.5 39.5t16 46l358 501h-313q-60 0 -60 51q0 52 60 52h413q26 0 41.5 -15.5t15.5 -38.5t-17 -46l-358 -502h327q60 0 60 -51zM256 778l-83 77q-15 14 -15 31q0 15 11 26.5t27 11.5q17 0 31 -14l75 -77l75 77q14 14 31 14
q16 0 27.5 -11.5t11.5 -26.5q0 -16 -16 -31l-83 -77q-21 -18 -46 -18q-23 0 -46 18z" />
    <glyph glyph-name="zcaron" unicode="&#x17e;" horiz-adv-x="510" 
d="M485 47q0 -22 -14 -34.5t-42 -12.5h-334q-25 0 -41 16t-16 38q0 23 18 44l257 297h-223q-28 0 -42 12t-14 35t14 35t42 12h323q26 0 41.5 -15.5t15.5 -38.5q0 -24 -17 -44l-258 -297h234q56 0 56 -47zM234.5 555.5q-11.5 7.5 -22.5 22.5l-88 118q-9 12 -9 26
q0 16 12.5 28t28.5 12q21 0 35 -21l71 -110l71 110q14 21 35 21q16 0 28.5 -12t12.5 -28q0 -12 -9 -26l-88 -118q-11 -15 -22.5 -22.5t-27.5 -7.5t-27.5 7.5z" />
    <glyph glyph-name="uni018F" unicode="&#x18f;" horiz-adv-x="758" 
d="M540.5 670q78.5 -44 121 -125.5t42.5 -191.5q0 -107 -40 -189t-113 -127.5t-170 -45.5q-100 0 -173.5 42.5t-113.5 123t-40 191.5q0 28 15 43.5t41 15.5h463q-12 99 -69.5 151t-154.5 52q-45 0 -86.5 -13.5t-89.5 -44.5q-13 -8 -21.5 -11t-18.5 -3q-17 0 -29.5 15
t-12.5 37q0 15 5.5 26t17.5 22q44 37 107 56.5t135 19.5q106 0 184.5 -44zM516.5 148.5q49.5 54.5 57.5 158.5h-390q7 -103 58.5 -158t138.5 -55q86 0 135.5 54.5z" />
    <glyph glyph-name="florin" unicode="&#x192;" 
d="M418 524l-7 -31h85q17 0 29 -11t12 -28q0 -16 -12 -27t-29 -11h-101l-90 -420q-19 -94 -75.5 -137.5t-132.5 -43.5h-20q-27 0 -42 14t-15 33q0 21 16.5 36.5t44.5 15.5h14q71 0 87 86l89 416h-84q-17 0 -29 11t-12 27q0 17 12 28t29 11h101l7 35q19 94 75 138t132 44h21
q27 0 42 -14t15 -34t-16.5 -36t-44.5 -16h-15q-70 0 -86 -86z" />
    <glyph glyph-name="Ohorn" unicode="&#x1a0;" horiz-adv-x="779" 
d="M694 522.5q31 -73.5 31 -169.5q0 -110 -41 -192t-116.5 -126t-177.5 -44q-103 0 -178.5 44t-116.5 126t-41 192t40.5 191.5t117 125.5t180.5 44q30 0 67 -5q40 -4 62 -4q49 0 69 18t23 65q4 67 60 67q52 0 52 -66q0 -55 -33 -95.5t-88 -50.5q59 -47 90 -120.5zM541.5 161
q54.5 67 54.5 192t-54.5 191.5t-151.5 66.5q-98 0 -152.5 -66.5t-54.5 -191.5t54.5 -192t152.5 -67q97 0 151.5 67z" />
    <glyph glyph-name="ohorn" unicode="&#x1a1;" horiz-adv-x="575" 
d="M517.5 356.5q19.5 -49.5 19.5 -110.5q0 -77 -30.5 -134.5t-87 -88.5t-131.5 -31t-131.5 31t-87.5 88.5t-31 134.5q0 78 31 135.5t87.5 88.5t131.5 31q21 0 49 -4q15 -3 28 -3q35 0 54 17.5t23 59.5q6 57 61 57q26 0 38.5 -13.5t12.5 -42.5q0 -45 -25 -81t-69 -52
q38 -33 57.5 -82.5zM380 128.5q32 39.5 32 117.5t-32 118.5t-92 40.5t-92.5 -40.5t-32.5 -118.5q0 -77 32 -117t92 -40q61 0 93 39.5z" />
    <glyph glyph-name="Uhorn" unicode="&#x1af;" horiz-adv-x="733" 
d="M744.5 695q-31.5 -40 -83.5 -50v-360q0 -143 -75 -218.5t-219 -75.5q-145 0 -220 75t-75 219v361q0 29 17 46.5t46 17.5t46 -17.5t17 -46.5v-368q0 -91 43 -137.5t126 -46.5q82 0 125 47t43 137v368q0 28 16.5 46t43.5 19q34 0 49.5 16t19.5 59q6 66 60 66q52 0 52 -64
q0 -53 -31.5 -93z" />
    <glyph glyph-name="uhorn" unicode="&#x1b0;" horiz-adv-x="599" 
d="M597 483.5q-31 -37.5 -83 -48.5v-383q0 -26 -17.5 -42t-45.5 -16q-27 0 -43 15t-16 41v25q-23 -40 -62 -61.5t-88 -21.5q-180 0 -180 202v246q0 27 17 43t45 16q29 0 46 -16t17 -43v-247q0 -52 21 -77t64 -25q53 0 85 34.5t32 91.5v223q0 54 59 59q33 1 49 18t19 54
q3 30 18 43.5t43 13.5q26 0 38.5 -13.5t12.5 -41.5q0 -52 -31 -89.5z" />
    <glyph glyph-name="uni01C4" unicode="&#x1c4;" horiz-adv-x="1341" 
d="M92.5 16q-16.5 16 -16.5 45v583q0 29 16.5 45t45.5 16h198q173 0 268.5 -92.5t95.5 -259.5q0 -168 -95.5 -260.5t-268.5 -92.5h-198q-29 0 -45.5 16zM571 353q0 247 -243 247h-123v-495h123q243 0 243 248zM1318 52q0 -52 -60 -52h-426q-26 0 -41.5 15.5t-15.5 39.5
t16 46l358 501h-313q-60 0 -60 51q0 52 60 52h413q26 0 41.5 -15.5t15.5 -38.5t-17 -46l-358 -502h327q60 0 60 -51zM995 778l-83 77q-15 14 -15 31q0 15 11 26.5t27 11.5q17 0 31 -14l75 -77l75 77q14 14 31 14q16 0 27.5 -11.5t11.5 -26.5q0 -16 -16 -31l-83 -77
q-21 -18 -46 -18q-23 0 -46 18z" />
    <glyph glyph-name="uni01C5" unicode="&#x1c5;" horiz-adv-x="1264" 
d="M92.5 16q-16.5 16 -16.5 45v583q0 29 16.5 45t45.5 16h198q173 0 268.5 -92.5t95.5 -259.5q0 -168 -95.5 -260.5t-268.5 -92.5h-198q-29 0 -45.5 16zM571 353q0 247 -243 247h-123v-495h123q243 0 243 248zM1239 47q0 -22 -14 -34.5t-42 -12.5h-334q-25 0 -41 16t-16 38
q0 23 18 44l257 297h-223q-28 0 -42 12t-14 35t14 35t42 12h323q26 0 41.5 -15.5t15.5 -38.5q0 -24 -17 -44l-258 -297h234q56 0 56 -47zM988.5 555.5q-11.5 7.5 -22.5 22.5l-88 118q-9 12 -9 26q0 16 12.5 28t28.5 12q21 0 35 -21l71 -110l71 110q14 21 35 21
q16 0 28.5 -12t12.5 -28q0 -12 -9 -26l-88 -118q-11 -15 -22.5 -22.5t-27.5 -7.5t-27.5 7.5z" />
    <glyph glyph-name="uni01C6" unicode="&#x1c6;" horiz-adv-x="1111" 
d="M519 694q18 -16 18 -42v-598q0 -27 -17 -43t-45 -16t-45 16t-17 43v25q-22 -41 -63.5 -64t-94.5 -23q-63 0 -112.5 32t-77 90.5t-27.5 134.5t27.5 133t76.5 88t113 31q53 0 94 -22t63 -62v237q0 25 16.5 40.5t44.5 15.5t46 -16zM380.5 130q32.5 41 32.5 117t-32.5 116.5
t-91.5 40.5q-60 0 -93 -40t-33 -115q0 -76 33 -118t92 -42q60 0 92.5 41zM1086 47q0 -22 -14 -34.5t-42 -12.5h-334q-25 0 -41 16t-16 38q0 23 18 44l257 297h-223q-28 0 -42 12t-14 35t14 35t42 12h323q26 0 41.5 -15.5t15.5 -38.5q0 -24 -17 -44l-258 -297h234
q56 0 56 -47zM835.5 555.5q-11.5 7.5 -22.5 22.5l-88 118q-9 12 -9 26q0 16 12.5 28t28.5 12q21 0 35 -21l71 -110l71 110q14 21 35 21q16 0 28.5 -12t12.5 -28q0 -12 -9 -26l-88 -118q-11 -15 -22.5 -22.5t-27.5 -7.5t-27.5 7.5z" />
    <glyph glyph-name="uni01C7" unicode="&#x1c7;" horiz-adv-x="914" 
d="M92 16q-16 16 -16 44v586q0 29 17.5 46.5t46.5 17.5q30 0 47.5 -17.5t17.5 -46.5v-540h251q60 0 60 -53t-60 -53h-319q-29 0 -45 16zM562 5.5q-20 13.5 -20 41.5q0 24 12.5 36.5t39.5 14.5l32 2q42 2 62.5 26t20.5 73v447q0 29 17.5 46.5t46.5 17.5q30 0 47.5 -17.5
t17.5 -46.5v-447q0 -191 -187 -203l-32 -2q-37 -2 -57 11.5z" />
    <glyph glyph-name="uni01C8" unicode="&#x1c8;" horiz-adv-x="809" 
d="M92 16q-16 16 -16 44v586q0 29 17.5 46.5t46.5 17.5q30 0 47.5 -17.5t17.5 -46.5v-540h281q60 0 60 -53t-60 -53h-349q-29 0 -45 16zM494.5 -172q-19.5 12 -19.5 37q0 41 50 45l27 2q34 2 51 21t17 58v449q0 29 17.5 44t44.5 15t45 -15t18 -44v-440q0 -168 -168 -180
l-27 -2q-36 -2 -55.5 10zM627 606.5q-20 18.5 -20 48.5t20 48t54 18q33 0 53.5 -18t20.5 -48t-20 -48.5t-54 -18.5t-54 18.5z" />
    <glyph glyph-name="uni01C9" unicode="&#x1c9;" horiz-adv-x="508" 
d="M82.5 9.5q-17.5 15.5 -17.5 44.5v597q0 29 17.5 44t44.5 15t45 -15t18 -44v-597q0 -29 -18 -44.5t-45 -15.5t-44.5 15.5zM193.5 -172q-19.5 12 -19.5 37q0 41 50 45l27 2q34 2 51 21t17 58v449q0 29 17.5 44t44.5 15t45 -15t18 -44v-440q0 -168 -168 -180l-27 -2
q-36 -2 -55.5 10zM326 606.5q-20 18.5 -20 48.5t20 48t54 18q33 0 53.5 -18t20.5 -48t-20 -48.5t-54 -18.5t-54 18.5z" />
    <glyph glyph-name="uni01CA" unicode="&#x1ca;" horiz-adv-x="1105" 
d="M654.5 692.5q16.5 -17.5 16.5 -46.5v-587q0 -29 -17 -47t-44 -18q-32 0 -49 23l-365 475v-433q0 -29 -16 -47t-44 -18t-44 18t-16 47v587q0 29 17 46.5t45 17.5q31 0 48 -23l364 -473v432q0 29 16.5 46.5t43.5 17.5q28 0 44.5 -17.5zM733 47q0 24 12.5 36.5t39.5 14.5
l32 2q41 2 62 26t21 73v447q0 29 17.5 46.5t46.5 17.5q30 0 47.5 -17.5t17.5 -46.5v-447q0 -189 -187 -203l-32 -2q-77 -3 -77 53z" />
    <glyph glyph-name="uni01CB" unicode="&#x1cb;" horiz-adv-x="1001" 
d="M654.5 692.5q16.5 -17.5 16.5 -46.5v-587q0 -29 -17 -47t-44 -18q-32 0 -49 23l-365 475v-433q0 -29 -16 -47t-44 -18t-44 18t-16 47v587q0 29 17 46.5t45 17.5q31 0 48 -23l364 -473v432q0 29 16.5 46.5t43.5 17.5q28 0 44.5 -17.5zM686.5 -172q-19.5 12 -19.5 37
q0 41 50 45l27 2q34 2 51 21t17 58v449q0 29 17.5 44t44.5 15t45 -15t18 -44v-440q0 -168 -168 -180l-27 -2q-36 -2 -55.5 10zM819 606.5q-20 18.5 -20 48.5t20 48t54 18q33 0 53.5 -18t20.5 -48t-20 -48.5t-54 -18.5t-54 18.5z" />
    <glyph glyph-name="uni01CC" unicode="&#x1cc;" horiz-adv-x="839" 
d="M480 451q43 -50 43 -151v-246q0 -28 -16.5 -44t-45.5 -16t-46 16t-17 44v239q0 57 -21.5 83t-67.5 26q-54 0 -86.5 -34t-32.5 -91v-223q0 -28 -17 -44t-46 -16t-45.5 16t-16.5 44v387q0 26 17 42t46 16q26 0 42.5 -15.5t16.5 -40.5v-27q25 41 67 63t95 22q88 0 131 -50z
M524.5 -172q-19.5 12 -19.5 37q0 41 50 45l27 2q34 2 51 21t17 58v449q0 29 17.5 44t44.5 15t45 -15t18 -44v-440q0 -168 -168 -180l-27 -2q-36 -2 -55.5 10zM657 606.5q-20 18.5 -20 48.5t20 48t54 18q33 0 53.5 -18t20.5 -48t-20 -48.5t-54 -18.5t-54 18.5z" />
    <glyph glyph-name="uni01CE" unicode="&#x1ce;" horiz-adv-x="540" 
d="M428.5 450.5q49.5 -50.5 49.5 -153.5v-244q0 -27 -16 -42.5t-44 -15.5q-26 0 -42.5 16t-16.5 42v22q-17 -39 -53.5 -61t-84.5 -22q-49 0 -89 20t-63 55t-23 78q0 54 27.5 85t89.5 45t171 14h25v23q0 49 -21 71.5t-68 22.5q-29 0 -59 -8.5t-71 -24.5q-26 -13 -38 -13
q-18 0 -29.5 13t-11.5 34q0 17 8.5 29.5t28.5 23.5q35 19 83.5 30t95.5 11q102 0 151.5 -50.5zM327.5 115.5q31.5 33.5 31.5 86.5v21h-18q-67 0 -104 -6t-53 -21t-16 -41q0 -32 22.5 -52.5t55.5 -20.5q50 0 81.5 33.5zM249.5 555.5q-11.5 7.5 -22.5 22.5l-88 118
q-9 12 -9 26q0 16 12.5 28t28.5 12q21 0 35 -21l71 -110l71 110q14 21 35 21q16 0 28.5 -12t12.5 -28q0 -12 -9 -26l-88 -118q-11 -15 -22.5 -22.5t-27.5 -7.5t-27.5 7.5z" />
    <glyph glyph-name="uni01D4" unicode="&#x1d4;" horiz-adv-x="579" 
d="M497 483q17 -16 17 -43v-388q0 -26 -17.5 -42t-45.5 -16q-27 0 -43 15t-16 41v25q-23 -40 -62 -61.5t-88 -21.5q-180 0 -180 202v246q0 27 17 43t45 16q29 0 46 -16t17 -43v-247q0 -52 21 -77t66 -25q52 0 83.5 34.5t31.5 91.5v223q0 27 17 43t45 16q29 0 46 -16z
M261.5 555.5q-11.5 7.5 -22.5 22.5l-88 118q-9 12 -9 26q0 16 12.5 28t28.5 12q21 0 35 -21l71 -110l71 110q14 21 35 21q16 0 28.5 -12t12.5 -28q0 -12 -9 -26l-88 -118q-11 -15 -22.5 -22.5t-27.5 -7.5t-27.5 7.5z" />
    <glyph glyph-name="uni01E5" unicode="&#x1e5;" horiz-adv-x="605" 
d="M598.5 -6.5q12.5 -10.5 12.5 -26.5t-12.5 -26.5t-32.5 -10.5h-44q-26 -69 -85.5 -106t-148.5 -37q-99 0 -177 49q-42 26 -42 58q0 16 9 25.5t26 9.5q11 0 21.5 -4.5t30.5 -14.5q33 -17 59 -26t65 -9q73 0 110 55h-108q-20 0 -32.5 10.5t-12.5 26.5t12.5 26.5t32.5 10.5
h133q2 20 2 32v74q-22 -36 -64 -56.5t-96 -20.5q-64 0 -113.5 28t-77.5 79t-28 117q0 72 27.5 127.5t77.5 86t114 30.5q54 0 96 -22.5t64 -63.5v26q0 26 17 42t45 16t45 -16t17 -43v-395q0 -15 -2 -41h27q20 0 32.5 -10.5zM383.5 155q33.5 37 33.5 102q0 69 -33.5 108
t-93.5 39q-59 0 -93 -39t-34 -108q0 -65 34 -102t93 -37q60 0 93.5 37z" />
    <glyph glyph-name="Gcaron" unicode="&#x1e6;" horiz-adv-x="733" 
d="M650 367.5q14 -13.5 14 -35.5v-215q0 -46 -12 -65t-49 -31q-40 -14 -93 -22t-102 -8q-109 0 -189 43t-122.5 124.5t-42.5 194.5q0 111 42.5 192.5t120.5 125t184 43.5q141 0 231 -76q12 -11 17.5 -22t5.5 -26q0 -22 -12 -37t-29 -15q-11 0 -20 3.5t-21 11.5
q-44 31 -82 43.5t-86 12.5q-109 0 -164.5 -64.5t-55.5 -191.5q0 -260 228 -260q68 0 136 19v177h-113q-24 0 -37.5 12t-13.5 34t13.5 34t37.5 12h177q23 0 37 -13.5zM355 778l-83 77q-15 14 -15 31q0 15 11 26.5t27 11.5q17 0 31 -14l75 -77l75 77q14 14 31 14
q16 0 27.5 -11.5t11.5 -26.5q0 -16 -16 -31l-83 -77q-21 -18 -46 -18q-23 0 -46 18z" />
    <glyph glyph-name="gcaron" unicode="&#x1e7;" horiz-adv-x="605" 
d="M524 483q17 -16 17 -43v-395q0 -115 -64 -174t-189 -59q-109 0 -182 41q-37 22 -37 53q0 22 10.5 35t27.5 13q9 0 22 -4.5t27 -10.5q36 -15 64.5 -23t65.5 -8q131 0 131 128v64q-22 -41 -64 -63.5t-96 -22.5q-64 0 -113.5 30.5t-77.5 85.5t-28 127t27.5 127.5t77.5 86
t114 30.5q54 0 96 -22.5t64 -63.5v26q0 26 17 42t45 16t45 -16zM383.5 150q33.5 39 33.5 107q0 69 -33.5 108t-93.5 39q-59 0 -93 -39t-34 -108q0 -68 34 -107t93 -39q60 0 93.5 39zM276.5 555.5q-11.5 7.5 -22.5 22.5l-88 118q-9 12 -9 26q0 16 12.5 28t28.5 12
q21 0 35 -21l71 -110l71 110q14 21 35 21q16 0 28.5 -12t12.5 -28q0 -12 -9 -26l-88 -118q-11 -15 -22.5 -22.5t-27.5 -7.5t-27.5 7.5z" />
    <glyph glyph-name="uni01E9" unicode="&#x1e9;" horiz-adv-x="536" 
d="M520 54q0 -23 -16.5 -41t-38.5 -18t-41 18l-234 212v-171q0 -29 -18 -44t-45 -15t-44.5 15t-17.5 44v597q0 29 17.5 44t44.5 15t45 -15t18 -44v-376l214 205q18 18 41 18t40 -17t17 -40t-19 -42l-157 -146l174 -156q20 -19 20 -43zM241 748l-83 77q-15 14 -15 31
q0 15 11 26.5t27 11.5q17 0 31 -14l75 -77l75 77q14 14 31 14q16 0 27.5 -11.5t11.5 -26.5q0 -16 -16 -31l-83 -77q-21 -18 -46 -18q-23 0 -46 18z" />
    <glyph glyph-name="uni01EA" unicode="&#x1ea;" horiz-adv-x="779" 
d="M428 -69q0 -26 15 -41.5t41 -15.5q20 0 48 9q8 2 10 2q11 0 18 -8.5t7 -20.5q0 -20 -17 -30q-37 -21 -83 -21q-55 0 -89.5 30.5t-34.5 77.5q0 45 31 79q-98 3 -170 47.5t-111 125t-39 188.5q0 110 40.5 191.5t116.5 125.5t179 44t178.5 -44t116 -125.5t40.5 -191.5
q0 -135 -60 -225.5t-169 -122.5q-68 -19 -68 -74zM541.5 161q54.5 67 54.5 192t-54.5 191.5t-151.5 66.5q-98 0 -152.5 -66.5t-54.5 -191.5t54.5 -192t152.5 -67q97 0 151.5 67z" />
    <glyph glyph-name="uni01EB" unicode="&#x1eb;" horiz-adv-x="575" 
d="M325 -23q-17 -18 -17 -46q0 -26 15.5 -41.5t41.5 -15.5q20 0 48 9q6 2 10 2q11 0 17.5 -8.5t6.5 -20.5q0 -20 -17 -30q-37 -21 -83 -21q-54 0 -88.5 30.5t-34.5 77.5t34 81q-102 10 -161 77.5t-59 175.5q0 77 31 134.5t87.5 88.5t131.5 31t131.5 -31t87 -88.5
t30.5 -134.5q0 -90 -42 -153.5t-115 -86.5q-38 -12 -55 -30zM380 129q32 40 32 118q0 77 -32 117.5t-92 40.5t-92.5 -40.5t-32.5 -117.5q0 -78 32 -118t92 -40q61 0 93 40z" />
    <glyph glyph-name="uni01EF" unicode="&#x1ef;" horiz-adv-x="510" 
d="M134 -177.5q-40 10.5 -83 34.5q-15 7 -22.5 18.5t-7.5 24.5q0 19 13 33t33 14q9 0 22 -5q40 -20 67 -27t61 -7q65 0 102 33t37 90q0 51 -29 76.5t-106 25.5l-35 -1q-26 0 -42.5 14.5t-16.5 35.5q0 24 20 44l164 169h-230q-25 0 -40 13t-15 34t15 34t40 13h318
q25 0 39.5 -15t14.5 -37q0 -24 -19 -43l-173 -176q11 1 33 1q86 -5 136.5 -51.5t50.5 -135.5q0 -63 -31.5 -113t-89 -78.5t-133.5 -28.5q-53 0 -93 10.5zM227.5 551.5q-11.5 7.5 -22.5 22.5l-88 118q-9 12 -9 26q0 16 12.5 28t28.5 12q21 0 35 -21l71 -110l71 110
q14 21 35 21q16 0 28.5 -12t12.5 -28q0 -12 -9 -26l-88 -118q-11 -15 -22.5 -22.5t-27.5 -7.5t-27.5 7.5z" />
    <glyph glyph-name="Aringacute" unicode="&#x1fa;" horiz-adv-x="742" 
d="M721 51q0 -24 -18 -39.5t-42 -15.5q-17 0 -31 8.5t-22 26.5l-60 134h-352l-60 -134q-8 -18 -22 -26.5t-31 -8.5q-24 0 -42.5 15.5t-18.5 38.5q0 14 6 27l285 612q-22 14 -35 37t-13 50q0 44 31 74t76 30q28 0 52 -13l94 68q20 14 38 14q21 0 35 -15t14 -34
q0 -15 -10 -28.5t-31 -20.5l-94 -34q8 -19 8 -41q0 -27 -13 -50t-35 -37l285 -612q6 -13 6 -26zM339 809.5q-13 -13.5 -13 -33.5t13 -33.5t33 -13.5q19 0 32 13.5t13 33.5t-13 33.5t-32 13.5q-20 0 -33 -13.5zM240 265h264l-132 297z" />
    <glyph glyph-name="aringacute" unicode="&#x1fb;" horiz-adv-x="540" 
d="M456 857q20 0 35 -15t15 -34q0 -29 -33 -46l-101 -58q11 -22 11 -48q0 -44 -31 -74t-75 -30t-75 30t-31 74t31 74t75 30q29 0 51 -12l85 89q20 20 43 20zM309 622.5q13 13.5 13 33.5t-13 33.5t-32 13.5t-32 -13.5t-13 -33.5t13 -33.5t32 -13.5t32 13.5zM428.5 450.5
q49.5 -50.5 49.5 -153.5v-244q0 -27 -16 -42.5t-44 -15.5q-26 0 -42.5 16t-16.5 42v22q-17 -39 -53.5 -61t-84.5 -22q-49 0 -89 20t-63 55t-23 78q0 54 27.5 85t89.5 45t171 14h25v23q0 49 -21 71.5t-68 22.5q-29 0 -59 -8.5t-71 -24.5q-26 -13 -38 -13q-18 0 -29.5 13
t-11.5 34q0 17 8.5 29.5t28.5 23.5q35 19 83.5 30t95.5 11q102 0 151.5 -50.5zM327.5 115.5q31.5 33.5 31.5 86.5v21h-18q-67 0 -104 -6t-53 -21t-16 -41q0 -32 22.5 -52.5t55.5 -20.5q50 0 81.5 33.5z" />
    <glyph glyph-name="AEacute" unicode="&#x1fc;" horiz-adv-x="997" 
d="M952 88.5q16 -13.5 16 -38.5t-16 -37.5t-45 -12.5h-290q-23 0 -38.5 11t-20.5 29l-27 125h-325l-82 -134q-11 -19 -27.5 -28t-34.5 -9q-23 0 -39 13.5t-16 34.5q0 17 11 35l377 593q11 17 30 26t43 9h439q29 0 45 -12.5t16 -37.5t-16 -38.5t-45 -13.5h-355l43 -194h292
q29 0 45 -13t16 -38t-16 -37.5t-45 -12.5h-269l45 -206h244q29 0 45 -13.5zM268 265h241l-62 290zM502 760q-13 0 -22 8.5t-9 19.5t11 22l91 94q19 20 43 20q20 0 34.5 -14.5t14.5 -33.5q0 -13 -8.5 -25t-25.5 -21l-113 -66q-8 -4 -16 -4z" />
    <glyph glyph-name="aeacute" unicode="&#x1fd;" horiz-adv-x="843" 
d="M792.5 121q10.5 -13 10.5 -35q0 -32 -37 -52q-34 -19 -76.5 -30.5t-79.5 -11.5q-71 0 -122 27.5t-80 79.5q-22 -52 -66.5 -79.5t-105.5 -27.5q-54 0 -97.5 19.5t-68 54.5t-24.5 79q0 54 27.5 85t89.5 45t171 14h25v22q0 50 -21.5 72.5t-67.5 22.5q-41 0 -70 -8.5
t-58 -23.5q-12 -6 -23 -10t-20 -4q-17 0 -27.5 13t-10.5 34q0 32 37 53q36 20 82 30.5t95 10.5q116 0 160 -71q30 34 72 52.5t92 18.5q61 0 108 -29.5t73 -83t26 -123.5q0 -43 -38 -43h-288q6 -68 38.5 -101t93.5 -33q31 0 54.5 8t53.5 22q30 16 45 16q17 0 27.5 -13z
M516.5 380.5q-30.5 -32.5 -36.5 -91.5h220q-3 60 -29.5 92t-73.5 32q-50 0 -80.5 -32.5zM328 116.5q31 34.5 31 86.5v20h-18q-67 0 -104 -6t-53 -21t-16 -41q0 -33 23.5 -53t59.5 -20q46 0 77 34.5zM422 548q-14 0 -23.5 9.5t-9.5 22.5q0 11 8 22l97 129q23 30 53 30
q22 0 37.5 -15.5t15.5 -36.5q0 -28 -27 -48l-129 -105q-11 -8 -22 -8z" />
    <glyph glyph-name="Oslashacute" unicode="&#x1fe;" horiz-adv-x="779" 
d="M696 518.5q29 -72.5 29 -165.5q0 -110 -41 -192t-116.5 -126t-177.5 -44q-77 0 -140 26l-20 -34q-9 -16 -22 -24t-27 -8q-19 0 -32 13t-13 33q0 17 10 34l21 36q-55 48 -84 120.5t-29 165.5q0 110 40.5 191.5t116.5 125.5t179 44q75 0 139 -25l20 34q19 32 48 32
q19 0 32.5 -13t13.5 -34q0 -17 -10 -34l-21 -35q55 -48 84 -120.5zM229 173l246 422q-36 16 -85 16q-98 0 -152.5 -66.5t-54.5 -191.5q0 -114 46 -180zM541.5 161q54.5 67 54.5 192q0 113 -45 180l-247 -423q36 -16 86 -16q97 0 151.5 67zM389 760q-13 0 -22 8.5t-9 19.5
t11 22l91 94q19 20 43 20q20 0 34.5 -14.5t14.5 -33.5q0 -13 -8.5 -25t-25.5 -21l-113 -66q-8 -4 -16 -4z" />
    <glyph glyph-name="oslashacute" unicode="&#x1ff;" horiz-adv-x="575" 
d="M514 365.5q23 -52.5 23 -118.5q0 -77 -30.5 -135t-87 -89t-131.5 -31q-55 0 -97 16l-19 -33q-13 -20 -34 -20q-15 0 -26 9.5t-11 23.5q0 9 6 20l20 35q-43 34 -66 86t-23 118q0 77 31 134.5t87.5 88.5t131.5 31q55 0 97 -16l19 34q11 20 33 20q15 0 26.5 -9.5t11.5 -24.5
q0 -9 -6 -20l-20 -34q42 -33 65 -85.5zM184 141l150 258q-20 7 -46 7q-62 0 -94.5 -40.5t-32.5 -118.5q0 -66 23 -106zM414 247q0 66 -23 104l-149 -256q21 -6 45 -6q127 0 127 158zM291 548q-14 0 -23.5 9.5t-9.5 22.5q0 11 8 22l97 129q23 30 53 30q22 0 37.5 -15.5
t15.5 -36.5q0 -28 -27 -48l-129 -105q-11 -8 -22 -8z" />
    <glyph glyph-name="uni0200" unicode="&#x200;" horiz-adv-x="742" 
d="M721 51q0 -23 -18.5 -39t-42.5 -16q-16 0 -30 8.5t-22 26.5l-60 134h-352l-60 -134q-8 -18 -22 -26.5t-31 -8.5q-23 0 -42 16t-19 39q0 13 6 26l276 593q9 20 27.5 30.5t39.5 10.5t39.5 -10.5t27.5 -30.5l277 -593q6 -13 6 -26zM240 265h264l-132 297zM199 880
q0 18 14.5 31t32.5 13q12 0 23 -7.5t17 -21.5l43 -93q3 -7 3 -15q0 -12 -8 -19.5t-19 -7.5q-13 0 -23 11l-68 76q-15 17 -15 33zM331 879q0 18 14.5 31.5t32.5 13.5q28 0 40 -29l43 -93q3 -7 3 -15q0 -12 -8 -19.5t-19 -7.5q-13 0 -23 11l-69 76q-14 15 -14 32z" />
    <glyph glyph-name="uni0201" unicode="&#x201;" horiz-adv-x="540" 
d="M428.5 450.5q49.5 -50.5 49.5 -153.5v-244q0 -27 -16 -42.5t-44 -15.5q-26 0 -42.5 16t-16.5 42v22q-17 -39 -53.5 -61t-84.5 -22q-49 0 -89 20t-63 55t-23 78q0 54 27.5 85t89.5 45t171 14h25v23q0 49 -21 71.5t-68 22.5q-29 0 -59 -8.5t-71 -24.5q-26 -13 -38 -13
q-18 0 -29.5 13t-11.5 34q0 17 8.5 29.5t28.5 23.5q35 19 83.5 30t95.5 11q102 0 151.5 -50.5zM327.5 115.5q31.5 33.5 31.5 86.5v21h-18q-67 0 -104 -6t-53 -21t-16 -41q0 -32 22.5 -52.5t55.5 -20.5q50 0 81.5 33.5zM109 720q0 19 13.5 31t32.5 12q17 0 31 -11.5t19 -34.5
l33 -134q3 -16 -5.5 -26t-21.5 -10q-7 0 -14.5 4.5t-11.5 12.5l-67 125q-9 17 -9 31zM242 719q0 20 13.5 32t32.5 12q17 0 30.5 -11.5t18.5 -34.5l33 -134q3 -16 -5.5 -26t-21.5 -10q-7 0 -14.5 4.5t-11.5 12.5l-67 125q-8 15 -8 30z" />
    <glyph glyph-name="uni0202" unicode="&#x202;" horiz-adv-x="742" 
d="M721 51q0 -23 -18.5 -39t-42.5 -16q-16 0 -30 8.5t-22 26.5l-60 134h-352l-60 -134q-8 -18 -22 -26.5t-31 -8.5q-23 0 -42 16t-19 39q0 13 6 26l276 593q9 20 27.5 30.5t39.5 10.5t39.5 -10.5t27.5 -30.5l277 -593q6 -13 6 -26zM240 265h264l-132 297zM237 775
q-14 0 -24 9t-10 23q0 11 6 23q20 37 63 58.5t99 21.5t99 -21t63 -59q6 -12 6 -23q0 -15 -10 -24t-24 -9q-19 0 -35 17q-17 20 -43 30.5t-56 10.5t-56 -10.5t-43 -30.5q-16 -16 -35 -16z" />
    <glyph glyph-name="uni0203" unicode="&#x203;" horiz-adv-x="540" 
d="M428.5 450.5q49.5 -50.5 49.5 -153.5v-244q0 -27 -16 -42.5t-44 -15.5q-26 0 -42.5 16t-16.5 42v22q-17 -39 -53.5 -61t-84.5 -22q-49 0 -89 20t-63 55t-23 78q0 54 27.5 85t89.5 45t171 14h25v23q0 49 -21 71.5t-68 22.5q-29 0 -59 -8.5t-71 -24.5q-26 -13 -38 -13
q-18 0 -29.5 13t-11.5 34q0 17 8.5 29.5t28.5 23.5q35 19 83.5 30t95.5 11q102 0 151.5 -50.5zM327.5 115.5q31.5 33.5 31.5 86.5v21h-18q-67 0 -104 -6t-53 -21t-16 -41q0 -32 22.5 -52.5t55.5 -20.5q50 0 81.5 33.5zM145 578q-15 0 -26 10.5t-11 26.5q0 8 3 17
q19 49 64.5 78.5t101.5 29.5t101.5 -29.5t64.5 -78.5q3 -9 3 -17q0 -16 -11 -26.5t-26 -10.5q-10 0 -19.5 5.5t-15.5 16.5q-33 56 -97 56t-97 -56q-13 -22 -35 -22z" />
    <glyph glyph-name="uni0204" unicode="&#x204;" horiz-adv-x="589" 
d="M92.5 16q-16.5 16 -16.5 45v583q0 29 16.5 45t45.5 16h361q29 0 45 -13t16 -37q0 -25 -16 -38.5t-45 -13.5h-297v-194h277q29 0 45 -13t16 -38q0 -24 -16 -37t-45 -13h-277v-206h297q29 0 45 -13.5t16 -38.5q0 -24 -16 -37t-45 -13h-361q-29 0 -45.5 16zM156 880
q0 18 14.5 31t32.5 13q12 0 23 -7.5t17 -21.5l43 -93q3 -7 3 -15q0 -12 -8 -19.5t-19 -7.5q-13 0 -23 11l-68 76q-15 17 -15 33zM288 879q0 18 14.5 31.5t32.5 13.5q28 0 40 -29l43 -93q3 -7 3 -15q0 -12 -8 -19.5t-19 -7.5q-13 0 -23 11l-69 76q-14 15 -14 32z" />
    <glyph glyph-name="uni0205" unicode="&#x205;" horiz-adv-x="531" 
d="M479.5 121q10.5 -13 10.5 -35q0 -31 -37 -52q-34 -19 -77 -30.5t-82 -11.5q-118 0 -187 68t-69 186q0 75 30 133t84.5 90t123.5 32q66 0 115 -29t76 -82t27 -125q0 -43 -38 -43h-295q6 -69 39 -101.5t96 -32.5q32 0 56.5 8t55.5 22q30 16 44 16q17 0 27.5 -13zM197.5 381
q-30.5 -32 -36.5 -92h226q-2 61 -30 92.5t-78 31.5q-51 0 -81.5 -32zM108 720q0 19 13.5 31t32.5 12q17 0 31 -11.5t19 -34.5l33 -134q3 -16 -5.5 -26t-21.5 -10q-7 0 -14.5 4.5t-11.5 12.5l-67 125q-9 17 -9 31zM241 719q0 20 13.5 32t32.5 12q17 0 30.5 -11.5t18.5 -34.5
l33 -134q3 -16 -5.5 -26t-21.5 -10q-7 0 -14.5 4.5t-11.5 12.5l-67 125q-8 15 -8 30z" />
    <glyph glyph-name="uni0206" unicode="&#x206;" horiz-adv-x="589" 
d="M92.5 16q-16.5 16 -16.5 45v583q0 29 16.5 45t45.5 16h361q29 0 45 -13t16 -37q0 -25 -16 -38.5t-45 -13.5h-297v-194h277q29 0 45 -13t16 -38q0 -24 -16 -37t-45 -13h-277v-206h297q29 0 45 -13.5t16 -38.5q0 -24 -16 -37t-45 -13h-361q-29 0 -45.5 16zM194 775
q-14 0 -24 9t-10 23q0 11 6 23q20 37 63 58.5t99 21.5t99 -21t63 -59q6 -12 6 -23q0 -15 -10 -24t-24 -9q-19 0 -35 17q-17 20 -43 30.5t-56 10.5t-56 -10.5t-43 -30.5q-16 -16 -35 -16z" />
    <glyph glyph-name="uni0207" unicode="&#x207;" horiz-adv-x="531" 
d="M479.5 121q10.5 -13 10.5 -35q0 -31 -37 -52q-34 -19 -77 -30.5t-82 -11.5q-118 0 -187 68t-69 186q0 75 30 133t84.5 90t123.5 32q66 0 115 -29t76 -82t27 -125q0 -43 -38 -43h-295q6 -69 39 -101.5t96 -32.5q32 0 56.5 8t55.5 22q30 16 44 16q17 0 27.5 -13zM197.5 381
q-30.5 -32 -36.5 -92h226q-2 61 -30 92.5t-78 31.5q-51 0 -81.5 -32zM144 578q-15 0 -26 10.5t-11 26.5q0 8 3 17q19 49 64.5 78.5t101.5 29.5t101.5 -29.5t64.5 -78.5q3 -9 3 -17q0 -16 -11 -26.5t-26 -10.5q-10 0 -19.5 5.5t-15.5 16.5q-33 56 -97 56t-97 -56
q-13 -22 -35 -22z" />
    <glyph glyph-name="uni0208" unicode="&#x208;" horiz-adv-x="281" 
d="M93.5 12q-17.5 18 -17.5 47v587q0 29 17.5 46.5t46.5 17.5q30 0 47.5 -17.5t17.5 -46.5v-587q0 -29 -17.5 -47t-47.5 -18q-29 0 -46.5 18zM-32 880q0 18 14.5 31t32.5 13q12 0 23 -7.5t17 -21.5l43 -93q3 -7 3 -15q0 -12 -8 -19.5t-19 -7.5q-13 0 -23 11l-68 76
q-15 17 -15 33zM100 879q0 18 14.5 31.5t32.5 13.5q28 0 40 -29l43 -93q3 -7 3 -15q0 -12 -8 -19.5t-19 -7.5q-13 0 -23 11l-69 76q-14 15 -14 32z" />
    <glyph glyph-name="uni0209" unicode="&#x209;" horiz-adv-x="254" 
d="M82.5 9.5q-17.5 15.5 -17.5 44.5v386q0 29 17.5 44t44.5 15t45 -15t18 -44v-386q0 -29 -18 -44.5t-45 -15.5t-44.5 15.5zM-41 720q0 19 13.5 31t32.5 12q17 0 31 -11.5t19 -34.5l33 -134q3 -16 -5.5 -26t-21.5 -10q-7 0 -14.5 4.5t-11.5 12.5l-67 125q-9 17 -9 31z
M92 719q0 20 13.5 32t32.5 12q17 0 30.5 -11.5t18.5 -34.5l33 -134q3 -16 -5.5 -26t-21.5 -10q-7 0 -14.5 4.5t-11.5 12.5l-67 125q-8 15 -8 30z" />
    <glyph glyph-name="uni020A" unicode="&#x20a;" horiz-adv-x="281" 
d="M93.5 12q-17.5 18 -17.5 47v587q0 29 17.5 46.5t46.5 17.5q30 0 47.5 -17.5t17.5 -46.5v-587q0 -29 -17.5 -47t-47.5 -18q-29 0 -46.5 18zM6 775q-14 0 -24 9t-10 23q0 11 6 23q20 37 63 58.5t99 21.5t99 -21t63 -59q6 -12 6 -23q0 -15 -10 -24t-24 -9q-19 0 -35 17
q-17 20 -43 30.5t-56 10.5t-56 -10.5t-43 -30.5q-16 -16 -35 -16z" />
    <glyph glyph-name="uni020B" unicode="&#x20b;" horiz-adv-x="254" 
d="M82.5 9.5q-17.5 15.5 -17.5 44.5v386q0 29 17.5 44t44.5 15t45 -15t18 -44v-386q0 -29 -18 -44.5t-45 -15.5t-44.5 15.5zM-5 578q-15 0 -26 10.5t-11 26.5q0 8 3 17q19 49 64.5 78.5t101.5 29.5t101.5 -29.5t64.5 -78.5q3 -9 3 -17q0 -16 -11 -26.5t-26 -10.5
q-10 0 -19.5 5.5t-15.5 16.5q-33 56 -97 56t-97 -56q-13 -22 -35 -22z" />
    <glyph glyph-name="uni020C" unicode="&#x20c;" horiz-adv-x="779" 
d="M211.5 35q-75.5 44 -116.5 126t-41 192t40.5 191.5t116.5 125.5t179 44t178.5 -44t116 -125.5t40.5 -191.5t-41 -192t-116.5 -126t-177.5 -44q-103 0 -178.5 44zM541.5 161q54.5 67 54.5 192t-54.5 191.5t-151.5 66.5q-98 0 -152.5 -66.5t-54.5 -191.5t54.5 -192
t152.5 -67q97 0 151.5 67zM217 880q0 18 14.5 31t32.5 13q12 0 23 -7.5t17 -21.5l43 -93q3 -7 3 -15q0 -12 -8 -19.5t-19 -7.5q-13 0 -23 11l-68 76q-15 17 -15 33zM349 879q0 18 14.5 31.5t32.5 13.5q28 0 40 -29l43 -93q3 -7 3 -15q0 -12 -8 -19.5t-19 -7.5q-13 0 -23 11
l-69 76q-14 15 -14 32z" />
    <glyph glyph-name="uni020D" unicode="&#x20d;" horiz-adv-x="575" 
d="M156.5 23q-56.5 31 -87.5 89t-31 135t31 134.5t87.5 88.5t131.5 31t131.5 -31t87 -88.5t30.5 -134.5t-30.5 -135t-87 -89t-131.5 -31t-131.5 31zM380 129q32 40 32 118q0 77 -32 117.5t-92 40.5t-92.5 -40.5t-32.5 -117.5q0 -78 32 -118t92 -40q61 0 93 40zM120 720
q0 19 13.5 31t32.5 12q17 0 31 -11.5t19 -34.5l33 -134q3 -16 -5.5 -26t-21.5 -10q-7 0 -14.5 4.5t-11.5 12.5l-67 125q-9 17 -9 31zM253 719q0 20 13.5 32t32.5 12q17 0 30.5 -11.5t18.5 -34.5l33 -134q3 -16 -5.5 -26t-21.5 -10q-7 0 -14.5 4.5t-11.5 12.5l-67 125
q-8 15 -8 30z" />
    <glyph glyph-name="uni020E" unicode="&#x20e;" horiz-adv-x="779" 
d="M211.5 35q-75.5 44 -116.5 126t-41 192t40.5 191.5t116.5 125.5t179 44t178.5 -44t116 -125.5t40.5 -191.5t-41 -192t-116.5 -126t-177.5 -44q-103 0 -178.5 44zM541.5 161q54.5 67 54.5 192t-54.5 191.5t-151.5 66.5q-98 0 -152.5 -66.5t-54.5 -191.5t54.5 -192
t152.5 -67q97 0 151.5 67zM255 775q-14 0 -24 9t-10 23q0 11 6 23q20 37 63 58.5t99 21.5t99 -21t63 -59q6 -12 6 -23q0 -15 -10 -24t-24 -9q-19 0 -35 17q-17 20 -43 30.5t-56 10.5t-56 -10.5t-43 -30.5q-16 -16 -35 -16z" />
    <glyph glyph-name="uni020F" unicode="&#x20f;" horiz-adv-x="575" 
d="M156.5 23q-56.5 31 -87.5 89t-31 135t31 134.5t87.5 88.5t131.5 31t131.5 -31t87 -88.5t30.5 -134.5t-30.5 -135t-87 -89t-131.5 -31t-131.5 31zM380 129q32 40 32 118q0 77 -32 117.5t-92 40.5t-92.5 -40.5t-32.5 -117.5q0 -78 32 -118t92 -40q61 0 93 40zM156 578
q-15 0 -26 10.5t-11 26.5q0 8 3 17q19 49 64.5 78.5t101.5 29.5t101.5 -29.5t64.5 -78.5q3 -9 3 -17q0 -16 -11 -26.5t-26 -10.5q-10 0 -19.5 5.5t-15.5 16.5q-33 56 -97 56t-97 -56q-13 -22 -35 -22z" />
    <glyph glyph-name="uni0210" unicode="&#x210;" horiz-adv-x="695" 
d="M652 46q0 -23 -18.5 -38t-43.5 -15q-16 0 -30.5 7.5t-24.5 22.5l-133 202q-20 32 -42.5 45t-58.5 13h-98v-224q0 -30 -17 -47.5t-46 -17.5t-46.5 17.5t-17.5 47.5v585q0 29 16.5 45t45.5 16h250q120 0 182.5 -53.5t62.5 -154.5q0 -82 -46.5 -134.5t-131.5 -67.5
q29 -7 51 -25t43 -50l91 -139q12 -18 12 -35zM477 409.5q34 27.5 34 84.5q0 58 -34 84.5t-107 26.5h-168v-223h168q73 0 107 27.5zM176 880q0 18 14.5 31t32.5 13q12 0 23 -7.5t17 -21.5l43 -93q3 -7 3 -15q0 -12 -8 -19.5t-19 -7.5q-13 0 -23 11l-68 76q-15 17 -15 33z
M308 879q0 18 14.5 31.5t32.5 13.5q28 0 40 -29l43 -93q3 -7 3 -15q0 -12 -8 -19.5t-19 -7.5q-13 0 -23 11l-69 76q-14 15 -14 32z" />
    <glyph glyph-name="uni0211" unicode="&#x211;" horiz-adv-x="383" 
d="M379 488q15 -13 15 -39q0 -27 -13 -40t-47 -17l-30 -3q-59 -6 -86.5 -40t-27.5 -85v-210q0 -29 -18 -44.5t-45 -15.5t-44.5 15.5t-17.5 44.5v387q0 28 17.5 43t43.5 15t42 -14.5t16 -41.5v-40q19 44 56.5 68t83.5 27l14 1q26 2 41 -11zM58 720q0 19 13.5 31t32.5 12
q17 0 31 -11.5t19 -34.5l33 -134q3 -16 -5.5 -26t-21.5 -10q-7 0 -14.5 4.5t-11.5 12.5l-67 125q-9 17 -9 31zM191 719q0 20 13.5 32t32.5 12q17 0 30.5 -11.5t18.5 -34.5l33 -134q3 -16 -5.5 -26t-21.5 -10q-7 0 -14.5 4.5t-11.5 12.5l-67 125q-8 15 -8 30z" />
    <glyph glyph-name="uni0212" unicode="&#x212;" horiz-adv-x="695" 
d="M652 46q0 -23 -18.5 -38t-43.5 -15q-16 0 -30.5 7.5t-24.5 22.5l-133 202q-20 32 -42.5 45t-58.5 13h-98v-224q0 -30 -17 -47.5t-46 -17.5t-46.5 17.5t-17.5 47.5v585q0 29 16.5 45t45.5 16h250q120 0 182.5 -53.5t62.5 -154.5q0 -82 -46.5 -134.5t-131.5 -67.5
q29 -7 51 -25t43 -50l91 -139q12 -18 12 -35zM477 409.5q34 27.5 34 84.5q0 58 -34 84.5t-107 26.5h-168v-223h168q73 0 107 27.5zM214 775q-14 0 -24 9t-10 23q0 11 6 23q20 37 63 58.5t99 21.5t99 -21t63 -59q6 -12 6 -23q0 -15 -10 -24t-24 -9q-19 0 -35 17
q-17 20 -43 30.5t-56 10.5t-56 -10.5t-43 -30.5q-16 -16 -35 -16z" />
    <glyph glyph-name="uni0213" unicode="&#x213;" horiz-adv-x="383" 
d="M379 488q15 -13 15 -39q0 -27 -13 -40t-47 -17l-30 -3q-59 -6 -86.5 -40t-27.5 -85v-210q0 -29 -18 -44.5t-45 -15.5t-44.5 15.5t-17.5 44.5v387q0 28 17.5 43t43.5 15t42 -14.5t16 -41.5v-40q19 44 56.5 68t83.5 27l14 1q26 2 41 -11zM94 578q-15 0 -26 10.5t-11 26.5
q0 8 3 17q19 49 64.5 78.5t101.5 29.5t101.5 -29.5t64.5 -78.5q3 -9 3 -17q0 -16 -11 -26.5t-26 -10.5q-10 0 -19.5 5.5t-15.5 16.5q-33 56 -97 56t-97 -56q-13 -22 -35 -22z" />
    <glyph glyph-name="uni0214" unicode="&#x214;" horiz-adv-x="733" 
d="M147 66q-75 75 -75 219v361q0 29 17 46.5t46 17.5t46 -17.5t17 -46.5v-368q0 -91 43 -137.5t126 -46.5q82 0 125 47t43 137v368q0 29 17 46.5t46 17.5t46 -17.5t17 -46.5v-361q0 -143 -75 -218.5t-219 -75.5q-145 0 -220 75zM195 880q0 18 14.5 31t32.5 13q12 0 23 -7.5
t17 -21.5l43 -93q3 -7 3 -15q0 -12 -8 -19.5t-19 -7.5q-13 0 -23 11l-68 76q-15 17 -15 33zM327 879q0 18 14.5 31.5t32.5 13.5q28 0 40 -29l43 -93q3 -7 3 -15q0 -12 -8 -19.5t-19 -7.5q-13 0 -23 11l-69 76q-14 15 -14 32z" />
    <glyph glyph-name="uni0215" unicode="&#x215;" horiz-adv-x="579" 
d="M497 483q17 -16 17 -43v-388q0 -26 -17.5 -42t-45.5 -16q-27 0 -43 15t-16 41v25q-23 -40 -62 -61.5t-88 -21.5q-180 0 -180 202v246q0 27 17 43t45 16q29 0 46 -16t17 -43v-247q0 -52 21 -77t66 -25q52 0 83.5 34.5t31.5 91.5v223q0 27 17 43t45 16q29 0 46 -16z
M121 720q0 19 13.5 31t32.5 12q17 0 31 -11.5t19 -34.5l33 -134q3 -16 -5.5 -26t-21.5 -10q-7 0 -14.5 4.5t-11.5 12.5l-67 125q-9 17 -9 31zM254 719q0 20 13.5 32t32.5 12q17 0 30.5 -11.5t18.5 -34.5l33 -134q3 -16 -5.5 -26t-21.5 -10q-7 0 -14.5 4.5t-11.5 12.5
l-67 125q-8 15 -8 30z" />
    <glyph glyph-name="uni0216" unicode="&#x216;" horiz-adv-x="733" 
d="M147 66q-75 75 -75 219v361q0 29 17 46.5t46 17.5t46 -17.5t17 -46.5v-368q0 -91 43 -137.5t126 -46.5q82 0 125 47t43 137v368q0 29 17 46.5t46 17.5t46 -17.5t17 -46.5v-361q0 -143 -75 -218.5t-219 -75.5q-145 0 -220 75zM233 775q-14 0 -24 9t-10 23q0 11 6 23
q20 37 63 58.5t99 21.5t99 -21t63 -59q6 -12 6 -23q0 -15 -10 -24t-24 -9q-19 0 -35 17q-17 20 -43 30.5t-56 10.5t-56 -10.5t-43 -30.5q-16 -16 -35 -16z" />
    <glyph glyph-name="uni0217" unicode="&#x217;" horiz-adv-x="579" 
d="M497 483q17 -16 17 -43v-388q0 -26 -17.5 -42t-45.5 -16q-27 0 -43 15t-16 41v25q-23 -40 -62 -61.5t-88 -21.5q-180 0 -180 202v246q0 27 17 43t45 16q29 0 46 -16t17 -43v-247q0 -52 21 -77t66 -25q52 0 83.5 34.5t31.5 91.5v223q0 27 17 43t45 16q29 0 46 -16z
M157 578q-15 0 -26 10.5t-11 26.5q0 8 3 17q19 49 64.5 78.5t101.5 29.5t101.5 -29.5t64.5 -78.5q3 -9 3 -17q0 -16 -11 -26.5t-26 -10.5q-10 0 -19.5 5.5t-15.5 16.5q-33 56 -97 56t-97 -56q-13 -22 -35 -22z" />
    <glyph glyph-name="uni0218" unicode="&#x218;" horiz-adv-x="638" 
d="M174.5 11.5q-68.5 20.5 -111.5 55.5q-23 17 -23 48q0 21 12.5 36.5t29.5 15.5q18 0 41 -14q43 -31 90 -45t104 -14q73 0 112 25.5t39 74.5q0 38 -36.5 58.5t-121.5 39.5q-88 19 -143 44t-83 64t-28 99q0 62 35 111t97.5 76.5t140.5 27.5q143 0 233 -76q13 -11 18.5 -21.5
t5.5 -26.5q0 -21 -12.5 -36.5t-29.5 -15.5q-10 0 -18.5 3t-22.5 11q-41 30 -79.5 44.5t-94.5 14.5q-68 0 -107.5 -27.5t-39.5 -76.5q0 -41 35 -63t119 -41q89 -20 144.5 -44.5t85 -62.5t29.5 -95q0 -62 -34.5 -109.5t-97 -74t-143.5 -26.5q-77 0 -145.5 20.5zM372.5 -83
q19.5 -20 19.5 -61q0 -31 -10 -59t-28 -48q-15 -16 -34 -16q-12 0 -21 7t-9 17q0 9 7 19q20 27 24 48h-4q-26 0 -44 14t-18 40q0 27 18 43t46 16q34 0 53.5 -20z" />
    <glyph glyph-name="uni0219" unicode="&#x219;" horiz-adv-x="485" 
d="M66 35q-32 19 -32 54q0 20 11 32.5t27 12.5q17 0 47 -16q32 -15 58.5 -23t67.5 -8q42 0 65.5 14t23.5 39q0 17 -9.5 27t-34 18.5t-74.5 19.5q-89 18 -127.5 51t-38.5 91q0 44 26 79.5t71.5 55t103.5 19.5q42 0 81 -10.5t70 -30.5q32 -20 32 -53q0 -20 -11 -33.5
t-27 -13.5q-11 0 -21.5 4.5t-26.5 13.5q-29 15 -50 22.5t-52 7.5q-37 0 -58.5 -15t-21.5 -41q0 -25 22 -38t85 -26q67 -14 105 -32t54.5 -45t16.5 -69q0 -68 -56.5 -109t-150.5 -41q-109 0 -176 43zM294.5 -83q19.5 -20 19.5 -61q0 -31 -10 -59t-28 -48q-15 -16 -34 -16
q-12 0 -21 7t-9 17q0 9 7 19q20 27 24 48h-4q-26 0 -44 14t-18 40q0 27 18 43t46 16q34 0 53.5 -20z" />
    <glyph glyph-name="uni021A" unicode="&#x21a;" horiz-adv-x="613" 
d="M259.5 12.5q-17.5 17.5 -17.5 46.5v540h-182q-60 0 -60 53t60 53h493q60 0 60 -53t-60 -53h-182v-540q0 -29 -17.5 -46.5t-46.5 -17.5q-30 0 -47.5 17.5zM359.5 -83q19.5 -20 19.5 -61q0 -31 -10 -59t-28 -48q-15 -16 -34 -16q-12 0 -21 7t-9 17q0 9 7 19q20 27 24 48h-4
q-26 0 -44 14t-18 40q0 27 18 43t46 16q34 0 53.5 -20z" />
    <glyph glyph-name="uni021B" unicode="&#x21b;" horiz-adv-x="369" 
d="M369 42q0 -24 -19.5 -36.5t-55.5 -10.5l-27 2q-168 12 -168 180v218h-50q-27 0 -41.5 12t-14.5 35t14.5 35t41.5 12h50v92q0 27 17 43t46 16q28 0 45 -16t17 -43v-92h85q27 0 41.5 -12t14.5 -35t-14.5 -35t-41.5 -12h-85v-227q0 -74 68 -79l27 -2q50 -3 50 -45z
M286.5 -83q19.5 -20 19.5 -61q0 -31 -10 -59t-28 -48q-15 -16 -34 -16q-12 0 -21 7t-9 17q0 9 7 19q20 27 24 48h-4q-26 0 -44 14t-18 40q0 27 18 43t46 16q34 0 53.5 -20z" />
    <glyph glyph-name="uni021F" unicode="&#x21f;" horiz-adv-x="585" 
d="M523 300v-246q0 -28 -16.5 -44t-45.5 -16t-46 16t-17 44v246q0 53 -21.5 77.5t-67.5 24.5q-54 0 -86.5 -34t-32.5 -91v-223q0 -28 -17 -44t-46 -16t-45.5 16t-16.5 44v598q0 26 17.5 42t45.5 16t45 -15t17 -41v-233q25 39 66.5 59.5t94.5 20.5q172 0 172 -201zM247 748
l-83 77q-15 14 -15 31q0 15 11 26.5t27 11.5q17 0 31 -14l75 -77l75 77q14 14 31 14q16 0 27.5 -11.5t11.5 -26.5q0 -16 -16 -31l-83 -77q-21 -18 -46 -18q-23 0 -46 18z" />
    <glyph glyph-name="uni0227" unicode="&#x227;" horiz-adv-x="540" 
d="M428.5 450.5q49.5 -50.5 49.5 -153.5v-244q0 -27 -16 -42.5t-44 -15.5q-26 0 -42.5 16t-16.5 42v22q-17 -39 -53.5 -61t-84.5 -22q-49 0 -89 20t-63 55t-23 78q0 54 27.5 85t89.5 45t171 14h25v23q0 49 -21 71.5t-68 22.5q-29 0 -59 -8.5t-71 -24.5q-26 -13 -38 -13
q-18 0 -29.5 13t-11.5 34q0 17 8.5 29.5t28.5 23.5q35 19 83.5 30t95.5 11q102 0 151.5 -50.5zM327.5 115.5q31.5 33.5 31.5 86.5v21h-18q-67 0 -104 -6t-53 -21t-16 -41q0 -32 22.5 -52.5t55.5 -20.5q50 0 81.5 33.5zM223 606.5q-20 18.5 -20 48.5t20 48t54 18
q33 0 53.5 -18t20.5 -48t-20 -48.5t-54 -18.5t-54 18.5z" />
    <glyph glyph-name="uni0228" unicode="&#x228;" horiz-adv-x="589" 
d="M544 88.5q16 -13.5 16 -38.5q0 -24 -16 -37t-45 -13h-145l-5 -42q16 2 23 2q31 0 52.5 -18.5t21.5 -50.5q0 -38 -33.5 -62t-94.5 -24q-42 0 -70 10q-9 4 -14 11t-5 16q0 14 8.5 22.5t22.5 4.5q34 -8 56 -8q50 0 50 30q0 10 -7 16t-20 6q-10 0 -26 -3.5t-20 -3.5
q-9 0 -14.5 5.5t-4.5 14.5l9 74h-145q-29 0 -45.5 16t-16.5 45v583q0 29 16.5 45t45.5 16h361q29 0 45 -13t16 -37q0 -25 -16 -38.5t-45 -13.5h-297v-194h277q29 0 45 -13t16 -38q0 -24 -16 -37t-45 -13h-277v-206h297q29 0 45 -13.5z" />
    <glyph glyph-name="uni022A" unicode="&#x22a;" horiz-adv-x="779" 
d="M211.5 35q-75.5 44 -116.5 126t-41 192t40.5 191.5t116.5 125.5t179 44t178.5 -44t116 -125.5t40.5 -191.5t-41 -192t-116.5 -126t-177.5 -44q-103 0 -178.5 44zM541.5 161q54.5 67 54.5 192t-54.5 191.5t-151.5 66.5q-98 0 -152.5 -66.5t-54.5 -191.5t54.5 -192
t152.5 -67q97 0 151.5 67zM250 797.5q-18 17.5 -18 45.5t18 45t47 17t47.5 -17t18.5 -45t-18.5 -45.5t-47.5 -17.5t-47 17.5zM434 797.5q-18 17.5 -18 45.5t18 45t47 17q28 0 46.5 -17t18.5 -45t-18 -45.5t-47 -17.5t-47 17.5zM235.5 972.5q-12.5 10.5 -12.5 29.5
q0 20 12.5 30.5t32.5 10.5h242q20 0 32.5 -10.5t12.5 -30.5q0 -19 -12.5 -29.5t-32.5 -10.5h-242q-20 0 -32.5 10.5z" />
    <glyph glyph-name="uni022B" unicode="&#x22b;" horiz-adv-x="575" 
d="M156.5 23q-56.5 31 -87.5 89t-31 135t31 134.5t87.5 88.5t131.5 31t131.5 -31t87 -88.5t30.5 -134.5t-30.5 -135t-87 -89t-131.5 -31t-131.5 31zM380 129q32 40 32 118q0 77 -32 117.5t-92 40.5t-92.5 -40.5t-32.5 -117.5q0 -78 32 -118t92 -40q61 0 93 40zM149 610
q-18 17 -18 45t18 45t47 17t47.5 -17t18.5 -45t-18.5 -45t-47.5 -17t-47 17zM333 610q-18 17 -18 45t18 45t47 17q28 0 46.5 -17t18.5 -45t-18 -45t-47 -17t-47 17zM134.5 816.5q-12.5 10.5 -12.5 29.5q0 20 12.5 30.5t32.5 10.5h242q20 0 32.5 -10.5t12.5 -30.5
q0 -19 -12.5 -29.5t-32.5 -10.5h-242q-20 0 -32.5 10.5z" />
    <glyph glyph-name="uni022C" unicode="&#x22c;" horiz-adv-x="779" 
d="M211.5 35q-75.5 44 -116.5 126t-41 192t40.5 191.5t116.5 125.5t179 44t178.5 -44t116 -125.5t40.5 -191.5t-41 -192t-116.5 -126t-177.5 -44q-103 0 -178.5 44zM541.5 161q54.5 67 54.5 192t-54.5 191.5t-151.5 66.5q-98 0 -152.5 -66.5t-54.5 -191.5t54.5 -192
t152.5 -67q97 0 151.5 67zM427.5 788.5q-17.5 4.5 -43.5 13.5q-18 6 -35.5 11t-31.5 5q-13 0 -20.5 -4.5t-17.5 -14.5q-9 -9 -14 -12.5t-14 -3.5q-13 0 -20.5 8.5t-7.5 22.5q0 19 12 39.5t33.5 34.5t47.5 14q17 0 34.5 -4.5t43.5 -13.5q18 -6 35.5 -11t31.5 -5
q13 0 20.5 4.5t17.5 14.5q9 9 14 12.5t14 3.5q13 0 20.5 -8t7.5 -22q0 -19 -12 -40t-33.5 -35t-47.5 -14q-17 0 -34.5 4.5zM235.5 972.5q-12.5 10.5 -12.5 29.5q0 20 12.5 30.5t32.5 10.5h242q20 0 32.5 -10.5t12.5 -30.5q0 -19 -12.5 -29.5t-32.5 -10.5h-242
q-20 0 -32.5 10.5z" />
    <glyph glyph-name="uni022D" unicode="&#x22d;" horiz-adv-x="575" 
d="M156.5 23q-56.5 31 -87.5 89t-31 135t31 134.5t87.5 88.5t131.5 31t131.5 -31t87 -88.5t30.5 -134.5t-30.5 -135t-87 -89t-131.5 -31t-131.5 31zM380 129q32 40 32 118q0 77 -32 117.5t-92 40.5t-92.5 -40.5t-32.5 -117.5q0 -78 32 -118t92 -40q61 0 93 40zM325.5 592
q-17.5 8 -44.5 24q-22 13 -35 19t-24 6q-16 0 -25.5 -8t-19.5 -23q-8 -12 -14 -17.5t-15 -5.5q-11 0 -18.5 9.5t-7.5 24.5q0 20 12 44.5t33.5 42t47.5 17.5q18 0 35.5 -8t44.5 -24q22 -13 35 -19t24 -6q16 0 25.5 8t19.5 23q8 12 14 17.5t15 5.5q12 0 19 -9.5t7 -24.5
q0 -20 -12 -44.5t-33.5 -42t-47.5 -17.5q-18 0 -35.5 8zM134.5 816.5q-12.5 10.5 -12.5 29.5q0 20 12.5 30.5t32.5 10.5h242q20 0 32.5 -10.5t12.5 -30.5q0 -19 -12.5 -29.5t-32.5 -10.5h-242q-20 0 -32.5 10.5z" />
    <glyph glyph-name="uni0230" unicode="&#x230;" horiz-adv-x="779" 
d="M211.5 35q-75.5 44 -116.5 126t-41 192t40.5 191.5t116.5 125.5t179 44t178.5 -44t116 -125.5t40.5 -191.5t-41 -192t-116.5 -126t-177.5 -44q-103 0 -178.5 44zM541.5 161q54.5 67 54.5 192t-54.5 191.5t-151.5 66.5q-98 0 -152.5 -66.5t-54.5 -191.5t54.5 -192
t152.5 -67q97 0 151.5 67zM335 794.5q-20 18.5 -20 48.5t20 48t54 18q33 0 53.5 -18t20.5 -48t-20 -48.5t-54 -18.5t-54 18.5zM235.5 972.5q-12.5 10.5 -12.5 29.5q0 20 12.5 30.5t32.5 10.5h242q20 0 32.5 -10.5t12.5 -30.5q0 -19 -12.5 -29.5t-32.5 -10.5h-242
q-20 0 -32.5 10.5z" />
    <glyph glyph-name="uni0231" unicode="&#x231;" horiz-adv-x="575" 
d="M156.5 23q-56.5 31 -87.5 89t-31 135t31 134.5t87.5 88.5t131.5 31t131.5 -31t87 -88.5t30.5 -134.5t-30.5 -135t-87 -89t-131.5 -31t-131.5 31zM380 129q32 40 32 118q0 77 -32 117.5t-92 40.5t-92.5 -40.5t-32.5 -117.5q0 -78 32 -118t92 -40q61 0 93 40zM234 606.5
q-20 18.5 -20 48.5t20 48t54 18q33 0 53.5 -18t20.5 -48t-20 -48.5t-54 -18.5t-54 18.5zM134.5 816.5q-12.5 10.5 -12.5 29.5q0 20 12.5 30.5t32.5 10.5h242q20 0 32.5 -10.5t12.5 -30.5q0 -19 -12.5 -29.5t-32.5 -10.5h-242q-20 0 -32.5 10.5z" />
    <glyph glyph-name="uni0232" unicode="&#x232;" horiz-adv-x="623" 
d="M559 710q23 0 41 -17.5t18 -41.5q0 -20 -15 -38l-227 -277v-277q0 -31 -18 -48t-46 -17q-29 0 -47 17t-18 48v277l-227 277q-15 18 -15 38q0 24 18 41.5t41 17.5q25 0 43 -22l205 -254l204 254q18 22 43 22zM157.5 812.5q-12.5 10.5 -12.5 29.5q0 20 12.5 30.5t32.5 10.5
h242q20 0 32.5 -10.5t12.5 -30.5q0 -19 -12.5 -29.5t-32.5 -10.5h-242q-20 0 -32.5 10.5z" />
    <glyph glyph-name="uni0233" unicode="&#x233;" horiz-adv-x="526" 
d="M427.5 489.5q13.5 8.5 29.5 8.5q23 0 41.5 -15.5t18.5 -38.5q0 -11 -6 -23l-273 -572q-17 -34 -53 -34q-23 0 -40.5 14.5t-17.5 36.5q0 11 6 25l68 143l-186 387q-5 10 -5 23q0 23 19.5 39t44.5 16q17 0 31 -8.5t22 -26.5l140 -309l139 308q8 18 21.5 26.5zM110.5 624.5
q-12.5 10.5 -12.5 29.5q0 20 12.5 30.5t32.5 10.5h242q20 0 32.5 -10.5t12.5 -30.5q0 -19 -12.5 -29.5t-32.5 -10.5h-242q-20 0 -32.5 10.5z" />
    <glyph glyph-name="uni0237" unicode="&#x237;" horiz-adv-x="254" 
d="M-60.5 -172q-19.5 12 -19.5 37q0 41 50 45l27 2q34 2 51 21t17 58v449q0 29 17.5 44t44.5 15t45 -15t18 -44v-440q0 -168 -168 -180l-27 -2q-36 -2 -55.5 10z" />
    <glyph glyph-name="uni0259" unicode="&#x259;" horiz-adv-x="531" 
d="M374.5 470q56.5 -31 87 -88.5t30.5 -134.5q0 -74 -29.5 -132t-82 -90.5t-119.5 -32.5q-104 0 -164 63t-60 174q0 42 38 42h297q-12 135 -135 135q-33 0 -58.5 -8.5t-52.5 -22.5q-12 -6 -23.5 -10.5t-19.5 -4.5q-17 0 -28 13t-11 34q0 32 37 53q36 19 79 30t82 11
q76 0 132.5 -31zM336 113q30 32 36 92h-225q3 -61 31 -92.5t78 -31.5t80 32z" />
    <glyph glyph-name="uni0292" unicode="&#x292;" horiz-adv-x="510" 
d="M134 -177.5q-40 10.5 -83 34.5q-15 7 -22.5 18.5t-7.5 24.5q0 19 13 33t33 14q9 0 22 -5q40 -20 67 -27t61 -7q65 0 102 33t37 90q0 51 -29 76.5t-106 25.5l-35 -1q-26 0 -42.5 14.5t-16.5 35.5q0 24 20 44l164 169h-230q-25 0 -40 13t-15 34t15 34t40 13h318
q25 0 39.5 -15t14.5 -37q0 -24 -19 -43l-173 -176q11 1 33 1q86 -5 136.5 -51.5t50.5 -135.5q0 -63 -31.5 -113t-89 -78.5t-133.5 -28.5q-53 0 -93 10.5z" />
    <glyph glyph-name="uni02BB" unicode="&#x2bb;" horiz-adv-x="300" 
d="M197 676q18 -14 18 -39q0 -27 -18 -43.5t-46 -16.5q-34 0 -53.5 20.5t-19.5 61.5q0 31 10 58.5t28 47.5q13 16 35 16q12 0 20.5 -6.5t8.5 -16.5q0 -9 -7 -19q-20 -27 -24 -49h4q26 0 44 -14z" />
    <glyph glyph-name="uni02BC" unicode="&#x2bc;" horiz-adv-x="300" 
d="M195 740q20 -20 20 -61q0 -31 -10.5 -58.5t-28.5 -47.5q-13 -16 -34 -16q-12 0 -21 6.5t-9 16.5t8 19q19 25 23 49h-3q-26 0 -44 14t-18 39q0 27 17.5 43t45.5 16q34 0 54 -20z" />
    <glyph glyph-name="uni02BE" unicode="&#x2be;" horiz-adv-x="300" 
d="M182 622.5q13 13.5 13 33.5t-13 33.5t-32 13.5v57q44 0 75 -30t31 -74t-31 -74t-75 -30v57q19 0 32 13.5z" />
    <glyph glyph-name="uni02BF" unicode="&#x2bf;" horiz-adv-x="300" 
d="M75 582q-31 30 -31 74t31 74t75 30v-57q-19 0 -32 -13.5t-13 -33.5t13 -33.5t32 -13.5v-57q-44 0 -75 30z" />
    <glyph glyph-name="circumflex" unicode="&#x2c6;" horiz-adv-x="300" 
d="M44 548q-16 0 -28.5 12t-12.5 28q0 13 9 26l88 119q12 15 23 22t27 7q17 0 28 -7t22 -23l88 -118q9 -12 9 -26q0 -16 -12.5 -28t-28.5 -12q-21 0 -35 21l-71 110l-71 -110q-14 -21 -35 -21z" />
    <glyph glyph-name="caron" unicode="&#x2c7;" horiz-adv-x="300" 
d="M122.5 555.5q-11.5 7.5 -22.5 22.5l-88 118q-9 12 -9 26q0 16 12.5 28t28.5 12q21 0 35 -21l71 -110l71 110q14 21 35 21q16 0 28.5 -12t12.5 -28q0 -12 -9 -26l-88 -118q-11 -15 -22.5 -22.5t-27.5 -7.5t-27.5 7.5z" />
    <glyph glyph-name="uni02C8" unicode="&#x2c8;" horiz-adv-x="300" 
d="M120 560.5q-11 12.5 -11 32.5v124q0 20 11 32.5t30 12.5t30 -12.5t11 -32.5v-124q0 -20 -11 -32.5t-30 -12.5t-30 12.5z" />
    <glyph glyph-name="uni02C9" unicode="&#x2c9;" horiz-adv-x="300" 
d="M-3.5 624.5q-12.5 10.5 -12.5 29.5q0 20 12.5 30.5t32.5 10.5h242q20 0 32.5 -10.5t12.5 -30.5q0 -19 -12.5 -29.5t-32.5 -10.5h-242q-20 0 -32.5 10.5z" />
    <glyph glyph-name="uni02CA" unicode="&#x2ca;" horiz-adv-x="300" 
d="M153 548q-14 0 -23.5 9.5t-9.5 22.5q0 11 8 22l97 129q23 30 53 30q22 0 37.5 -15.5t15.5 -36.5q0 -28 -27 -48l-129 -105q-11 -8 -22 -8z" />
    <glyph glyph-name="uni02CB" unicode="&#x2cb;" horiz-adv-x="300" 
d="M-31 709q0 21 16 36.5t38 15.5q29 0 52 -30l97 -129q8 -9 8 -22t-9.5 -22.5t-22.5 -9.5q-12 0 -23 8l-129 105q-27 20 -27 48z" />
    <glyph glyph-name="uni02CC" unicode="&#x2cc;" horiz-adv-x="300" 
d="M120 -262.5q-11 12.5 -11 32.5v123q0 20 11 32.5t30 12.5t30 -12.5t11 -32.5v-123q0 -20 -11 -32.5t-30 -12.5t-30 12.5z" />
    <glyph glyph-name="breve" unicode="&#x2d8;" horiz-adv-x="300" 
d="M48.5 604.5q-45.5 29.5 -64.5 78.5q-3 9 -3 17q0 17 11 27.5t26 10.5q22 0 35 -22q32 -57 97 -57t97 57q13 21 35 21q15 0 26 -10t11 -27q0 -8 -3 -17q-19 -49 -64.5 -78.5t-101.5 -29.5t-101.5 29.5z" />
    <glyph glyph-name="dotaccent" unicode="&#x2d9;" horiz-adv-x="300" 
d="M96 606.5q-20 18.5 -20 48.5t20 48t54 18q33 0 53.5 -18t20.5 -48t-20 -48.5t-54 -18.5t-54 18.5z" />
    <glyph glyph-name="ring" unicode="&#x2da;" horiz-adv-x="300" 
d="M75 582q-31 30 -31 74t31 74t75 30t75 -30t31 -74t-31 -74t-75 -30t-75 30zM182 622.5q13 13.5 13 33.5t-13 33.5t-32 13.5t-32 -13.5t-13 -33.5t13 -33.5t32 -13.5t32 13.5z" />
    <glyph glyph-name="ogonek" unicode="&#x2db;" horiz-adv-x="300" 
d="M25 -165q-35 30 -35 78q0 50 37.5 86t107.5 45l15 -34q-76 -19 -76 -79q0 -27 16 -42t41 -15q21 0 48 9q8 2 10 2q11 0 17.5 -9t6.5 -21q0 -21 -17 -29q-36 -21 -83 -21q-53 0 -88 30z" />
    <glyph glyph-name="tilde" unicode="&#x2dc;" horiz-adv-x="300" 
d="M187.5 592q-17.5 8 -44.5 24q-22 13 -35 19t-24 6q-16 0 -25.5 -8t-19.5 -23q-8 -12 -14 -17.5t-15 -5.5q-11 0 -18.5 9.5t-7.5 24.5q0 20 12 44.5t33.5 42t47.5 17.5q18 0 35.5 -8t44.5 -24q22 -13 35 -19t24 -6q16 0 25.5 8t19.5 23q8 12 14 17.5t15 5.5q12 0 19 -9.5
t7 -24.5q0 -20 -12 -44.5t-33.5 -42t-47.5 -17.5q-18 0 -35.5 8z" />
    <glyph glyph-name="hungarumlaut" unicode="&#x2dd;" horiz-adv-x="300" 
d="M98.5 551.5q-7.5 -4.5 -14.5 -4.5q-13 0 -21.5 10t-5.5 26l33 134q5 23 19 34.5t31 11.5q18 0 31.5 -12.5t13.5 -31.5q0 -15 -8 -30l-67 -125q-4 -8 -11.5 -12.5zM230.5 551.5q-7.5 -4.5 -14.5 -4.5q-13 0 -21.5 10t-5.5 26l33 134q5 23 19 34.5t31 11.5q18 0 32 -12
t14 -31q0 -14 -9 -31l-67 -125q-4 -8 -11.5 -12.5z" />
    <glyph glyph-name="gravecomb" unicode="&#x300;" horiz-adv-x="0" 
d="M-331 709q0 21 16 36.5t38 15.5q29 0 52 -30l97 -129q8 -9 8 -22t-9.5 -22.5t-22.5 -9.5q-12 0 -23 8l-129 105q-27 20 -27 48z" />
    <glyph glyph-name="acutecomb" unicode="&#x301;" horiz-adv-x="0" 
d="M-147 548q-14 0 -23.5 9.5t-9.5 22.5q0 11 8 22l97 129q23 30 53 30q22 0 37.5 -15.5t15.5 -36.5q0 -28 -27 -48l-129 -105q-11 -8 -22 -8z" />
    <glyph glyph-name="uni0302" unicode="&#x302;" horiz-adv-x="0" 
d="M-256 548q-16 0 -28.5 12t-12.5 28q0 13 9 26l88 119q12 15 23 22t27 7q17 0 28 -7t22 -23l88 -118q9 -12 9 -26q0 -16 -12.5 -28t-28.5 -12q-21 0 -35 21l-71 110l-71 -110q-14 -21 -35 -21z" />
    <glyph glyph-name="tildecomb" unicode="&#x303;" horiz-adv-x="0" 
d="M-112.5 592q-17.5 8 -44.5 24q-22 13 -35 19t-24 6q-16 0 -25.5 -8t-19.5 -23q-8 -12 -14 -17.5t-15 -5.5q-11 0 -18.5 9.5t-7.5 24.5q0 20 12 44.5t33.5 42t47.5 17.5q18 0 35.5 -8t44.5 -24q22 -13 35 -19t24 -6q16 0 25.5 8t19.5 23q8 12 14 17.5t15 5.5q12 0 19 -9.5
t7 -24.5q0 -20 -12 -44.5t-33.5 -42t-47.5 -17.5q-18 0 -35.5 8z" />
    <glyph glyph-name="uni0304" unicode="&#x304;" horiz-adv-x="0" 
d="M-303.5 624.5q-12.5 10.5 -12.5 29.5q0 20 12.5 30.5t32.5 10.5h242q20 0 32.5 -10.5t12.5 -30.5q0 -19 -12.5 -29.5t-32.5 -10.5h-242q-20 0 -32.5 10.5z" />
    <glyph glyph-name="uni0306" unicode="&#x306;" horiz-adv-x="0" 
d="M-251.5 604.5q-45.5 29.5 -64.5 78.5q-3 9 -3 17q0 17 11 27.5t26 10.5q22 0 35 -22q32 -57 97 -57t97 57q13 21 35 21q15 0 26 -10t11 -27q0 -8 -3 -17q-19 -49 -64.5 -78.5t-101.5 -29.5t-101.5 29.5z" />
    <glyph glyph-name="uni0307" unicode="&#x307;" horiz-adv-x="0" 
d="M-204 606.5q-20 18.5 -20 48.5t20 48t54 18q33 0 53.5 -18t20.5 -48t-20 -48.5t-54 -18.5t-54 18.5z" />
    <glyph glyph-name="uni0308" unicode="&#x308;" horiz-adv-x="0" 
d="M-289 610q-18 17 -18 45t18 45t47 17t47.5 -17t18.5 -45t-18.5 -45t-47.5 -17t-47 17zM-105 610q-18 17 -18 45t18 45t47 17q28 0 46.5 -17t18.5 -45t-18 -45t-47 -17t-47 17z" />
    <glyph glyph-name="hookabovecomb" unicode="&#x309;" horiz-adv-x="0" 
d="M-126.5 555q-10.5 -8 -22.5 -8q-14 0 -23.5 8.5t-9.5 24.5q0 21 10 35t28 29q13 12 18 18t5 14q0 24 -35 24q-14 0 -28.5 -3.5t-18.5 -4.5q-13 -4 -22 5t-9 22q0 21 19 28q32 13 69 13q52 0 81 -20.5t29 -51.5q0 -23 -11.5 -38t-32.5 -31q-16 -11 -24.5 -20.5
t-10.5 -22.5q-1 -13 -11.5 -21z" />
    <glyph glyph-name="uni030A" unicode="&#x30a;" horiz-adv-x="0" 
d="M-225 582q-31 30 -31 74t31 74t75 30t75 -30t31 -74t-31 -74t-75 -30t-75 30zM-118 622.5q13 13.5 13 33.5t-13 33.5t-32 13.5t-32 -13.5t-13 -33.5t13 -33.5t32 -13.5t32 13.5z" />
    <glyph glyph-name="uni030B" unicode="&#x30b;" horiz-adv-x="0" 
d="M-201.5 551.5q-7.5 -4.5 -14.5 -4.5q-13 0 -21.5 10t-5.5 26l33 134q5 23 19 34.5t31 11.5q18 0 31.5 -12.5t13.5 -31.5q0 -15 -8 -30l-67 -125q-4 -8 -11.5 -12.5zM-69.5 551.5q-7.5 -4.5 -14.5 -4.5q-13 0 -21.5 10t-5.5 26l33 134q5 23 19 34.5t31 11.5q18 0 32 -12
t14 -31q0 -14 -9 -31l-67 -125q-4 -8 -11.5 -12.5z" />
    <glyph glyph-name="uni030C" unicode="&#x30c;" horiz-adv-x="0" 
d="M-177.5 555.5q-11.5 7.5 -22.5 22.5l-88 118q-9 12 -9 26q0 16 12.5 28t28.5 12q21 0 35 -21l71 -110l71 110q14 21 35 21q16 0 28.5 -12t12.5 -28q0 -12 -9 -26l-88 -118q-11 -15 -22.5 -22.5t-27.5 -7.5t-27.5 7.5z" />
    <glyph glyph-name="uni030F" unicode="&#x30f;" horiz-adv-x="0" 
d="M-318 720q0 19 13.5 31t32.5 12q17 0 31 -11.5t19 -34.5l33 -134q3 -16 -5.5 -26t-21.5 -10q-7 0 -14.5 4.5t-11.5 12.5l-67 125q-9 17 -9 31zM-185 719q0 20 13.5 32t32.5 12q17 0 30.5 -11.5t18.5 -34.5l33 -134q3 -16 -5.5 -26t-21.5 -10q-7 0 -14.5 4.5t-11.5 12.5
l-67 125q-8 15 -8 30z" />
    <glyph glyph-name="uni0311" unicode="&#x311;" horiz-adv-x="0" 
d="M-282 578q-15 0 -26 10.5t-11 26.5q0 8 3 17q19 49 64.5 78.5t101.5 29.5t101.5 -29.5t64.5 -78.5q3 -9 3 -17q0 -16 -11 -26.5t-26 -10.5q-10 0 -19.5 5.5t-15.5 16.5q-33 56 -97 56t-97 -56q-13 -22 -35 -22z" />
    <glyph glyph-name="uni0312" unicode="&#x312;" horiz-adv-x="0" 
d="M-103 676q18 -14 18 -39q0 -27 -18 -43.5t-46 -16.5q-34 0 -53.5 20.5t-19.5 61.5q0 31 10 58.5t28 47.5q13 16 35 16q12 0 20.5 -6.5t8.5 -16.5q0 -9 -7 -19q-20 -27 -24 -49h4q26 0 44 -14z" />
    <glyph glyph-name="uni031B" unicode="&#x31b;" horiz-adv-x="0" 
d="M-150 493q51 0 71 17t23 61q4 31 19 44t43 13q26 0 38.5 -13t12.5 -42q0 -57 -37 -97t-99 -47l-71 45v19z" />
    <glyph glyph-name="dotbelowcomb" unicode="&#x323;" horiz-adv-x="0" 
d="M-197.5 -180.5q-18.5 17.5 -18.5 46.5q0 28 18 45t48 17q29 0 47.5 -17t18.5 -45q0 -29 -18.5 -46.5t-47.5 -17.5t-47.5 17.5z" />
    <glyph glyph-name="uni0324" unicode="&#x324;" horiz-adv-x="0" 
d="M-289 -179.5q-18 17.5 -18 45.5t18 45t47 17t47.5 -17t18.5 -45t-18.5 -45.5t-47.5 -17.5t-47 17.5zM-105 -179.5q-18 17.5 -18 45.5t18 45t47 17q28 0 46.5 -17.5t18.5 -44.5q0 -28 -18 -45.5t-47 -17.5t-47 17.5z" />
    <glyph glyph-name="uni0326" unicode="&#x326;" horiz-adv-x="0" 
d="M-97.5 -83q19.5 -20 19.5 -61q0 -31 -10 -59t-28 -48q-15 -16 -34 -16q-12 0 -21 7t-9 17q0 9 7 19q20 27 24 48h-4q-26 0 -44 14t-18 40q0 27 18 43t46 16q34 0 53.5 -20z" />
    <glyph glyph-name="uni0327" unicode="&#x327;" horiz-adv-x="0" 
d="M-52.5 -58.5q21.5 -18.5 21.5 -50.5q0 -38 -33.5 -62t-94.5 -24q-42 0 -70 10q-9 4 -14 11t-5 16q0 14 8.5 22.5t22.5 4.5q34 -8 56 -8q50 0 50 30q0 10 -7 16t-20 6q-10 0 -26 -3.5t-20 -3.5q-9 0 -14.5 5.5t-4.5 14.5l11 94h72l-8 -62q16 2 23 2q31 0 52.5 -18.5z" />
    <glyph glyph-name="uni0328" unicode="&#x328;" horiz-adv-x="0" 
d="M-275 -165q-35 30 -35 78q0 50 37.5 86t107.5 45l15 -34q-76 -19 -76 -79q0 -27 16 -42t41 -15q21 0 48 9q8 2 10 2q11 0 17.5 -9t6.5 -21q0 -21 -17 -29q-36 -21 -83 -21q-53 0 -88 30z" />
    <glyph glyph-name="uni032E" unicode="&#x32e;" horiz-adv-x="0" 
d="M-251.5 -192.5q-45.5 28.5 -64.5 76.5q-4 8 -4 18q0 15 10.5 25t25.5 10q23 0 37 -21q32 -53 97 -53t97 53q15 22 36 22q15 0 25.5 -10.5t10.5 -25.5q0 -9 -3 -18q-19 -48 -64.5 -76.5t-101.5 -28.5t-101.5 28.5z" />
    <glyph glyph-name="uni0331" unicode="&#x331;" horiz-adv-x="0" 
d="M-303.5 -163.5q-12.5 10.5 -12.5 28.5t12.5 28t32.5 10h242q20 0 32.5 -10t12.5 -28t-12.5 -28.5t-32.5 -10.5h-242q-20 0 -32.5 10.5z" />
    <glyph glyph-name="uni0335" unicode="&#x335;" horiz-adv-x="0" 
d="M-303.5 220.5q-12.5 10.5 -12.5 26.5t12.5 26.5t32.5 10.5h242q20 0 32.5 -10.5t12.5 -26.5t-12.5 -26.5t-32.5 -10.5h-242q-20 0 -32.5 10.5z" />
    <glyph glyph-name="uni0394" unicode="&#x394;" horiz-adv-x="742" 
d="M721 51q0 -23 -18 -37t-42 -14h-579q-24 0 -42.5 14t-18.5 37q0 9 7 26l276 593q9 20 27.5 30.5t39.5 10.5t39.5 -10.5t27.5 -30.5l277 -593q6 -12 6 -26zM372 564l-205 -458h409z" />
    <glyph glyph-name="Sigma" unicode="&#x3a3;" horiz-adv-x="597" 
d="M562 -127q0 -53 -60 -53h-413q-26 0 -41.5 15.5t-15.5 38.5q0 24 16 46l243 343l-243 342q-16 22 -16 46q0 23 15.5 38.5t41.5 15.5h413q60 0 60 -53q0 -51 -60 -51h-312l203 -283q22 -31 22 -55q0 -23 -23 -55l-202 -284h312q60 0 60 -51z" />
    <glyph glyph-name="uni03A9" unicode="&#x3a9;" horiz-adv-x="799" 
d="M733.5 91q15.5 -13 15.5 -38q0 -53 -60 -53h-190q-25 0 -40 15t-15 38t15 48q94 148 127.5 220.5t33.5 125.5q0 78 -57.5 121t-162.5 43t-163 -43t-58 -121q0 -53 34 -124.5t128 -221.5q15 -24 15 -48q0 -23 -15 -38t-41 -15h-190q-60 0 -60 53q0 25 15.5 38t44.5 13h115
q-73 98 -109.5 157t-51 101.5t-14.5 87.5q0 81 42.5 140.5t121.5 91.5t186 32q105 0 184 -32.5t122 -92t43 -139.5q0 -46 -14.5 -89t-51.5 -102.5t-108 -154.5h114q29 0 44.5 -13z" />
    <glyph glyph-name="uni03BC" unicode="&#x3bc;" horiz-adv-x="579" 
d="M497 483.5q17 -15.5 17 -43.5v-388q0 -26 -17.5 -42t-45.5 -16q-26 0 -42.5 15.5t-16.5 40.5v25q-23 -40 -62 -61.5t-88 -21.5q-31 0 -55 9v-128q0 -26 -17.5 -42t-46.5 -16q-28 0 -44.5 15.5t-16.5 40.5v569q0 28 16.5 43.5t45.5 15.5t46 -15.5t17 -43.5v-247
q0 -53 21.5 -77.5t65.5 -24.5q50 0 82.5 34t32.5 92v223q0 28 16.5 43.5t45.5 15.5t46 -15.5z" />
    <glyph glyph-name="pi" unicode="&#x3c0;" horiz-adv-x="603" 
d="M603 42q0 -25 -19.5 -37t-55.5 -10l-28 2q-85 6 -126 51t-41 129v218h-104q-2 -103 -14.5 -192t-40.5 -168q-7 -21 -24.5 -32t-37.5 -11q-26 0 -45 15t-19 41q0 10 3 20q48 153 54 327h-56q-56 0 -56 47t56 47h474q55 0 55 -47t-55 -47h-65v-227q0 -74 67 -79l28 -2
q50 -3 50 -45z" />
    <glyph glyph-name="uni0400" unicode="&#x400;" horiz-adv-x="589" 
d="M92.5 16q-16.5 16 -16.5 45v583q0 29 16.5 45t45.5 16h361q29 0 45 -13t16 -37q0 -25 -16 -38.5t-45 -13.5h-297v-194h277q29 0 45 -13t16 -38q0 -24 -16 -37t-45 -13h-277v-206h297q29 0 45 -13.5t16 -38.5q0 -24 -16 -37t-45 -13h-361q-29 0 -45.5 16zM165 877
q0 19 14 33.5t34 14.5q23 0 44 -21l91 -94q10 -10 10 -22q0 -11 -8.5 -19.5t-21.5 -8.5q-9 0 -16 4l-113 66q-34 18 -34 47z" />
    <glyph glyph-name="uni0401" unicode="&#x401;" horiz-adv-x="589" 
d="M92.5 16q-16.5 16 -16.5 45v583q0 29 16.5 45t45.5 16h361q29 0 45 -13t16 -37q0 -25 -16 -38.5t-45 -13.5h-297v-194h277q29 0 45 -13t16 -38q0 -24 -16 -37t-45 -13h-277v-206h297q29 0 45 -13.5t16 -38.5q0 -24 -16 -37t-45 -13h-361q-29 0 -45.5 16zM189 797.5
q-18 17.5 -18 45.5t18 45t47 17t47.5 -17t18.5 -45t-18.5 -45.5t-47.5 -17.5t-47 17.5zM373 797.5q-18 17.5 -18 45.5t18 45t47 17q28 0 46.5 -17t18.5 -45t-18 -45.5t-47 -17.5t-47 17.5z" />
    <glyph glyph-name="uni0402" unicode="&#x402;" horiz-adv-x="783" 
d="M532 -6q-24 0 -40 13t-17 33q0 22 9.5 34.5t28.5 19.5q53 16 77 48.5t24 81.5q0 54 -33.5 83.5t-102.5 29.5q-46 0 -75 -5.5t-65 -19.5v-254q0 -29 -17.5 -46.5t-45.5 -17.5q-29 0 -46 17.5t-17 46.5v541h-152q-25 0 -42.5 15t-17.5 38t17.5 38t42.5 15h463q25 0 42 -15
t17 -38q0 -22 -17 -37.5t-42 -15.5h-185v-187q83 27 161 27q125 0 185 -58t60 -160q0 -93 -53 -151t-141 -74q-12 -2 -18 -2z" />
    <glyph glyph-name="uni0403" unicode="&#x403;" horiz-adv-x="566" 
d="M93 11.5q-17 17.5 -17 46.5v586q0 28 17 44.5t44 16.5h357q27 0 41.5 -13.5t14.5 -37.5t-14.5 -38t-41.5 -14h-291v-544q0 -29 -17.5 -46.5t-46.5 -17.5t-46 17.5zM304 760q-13 0 -22 8.5t-9 19.5t11 22l91 94q19 20 43 20q20 0 34.5 -14.5t14.5 -33.5q0 -13 -8.5 -25
t-25.5 -21l-113 -66q-8 -4 -16 -4z" />
    <glyph glyph-name="uni0404" unicode="&#x404;" horiz-adv-x="680" 
d="M214.5 35.5q-77.5 44.5 -119 126.5t-41.5 191t41.5 190.5t119 126t181.5 44.5q129 0 219 -74q29 -23 29 -52q0 -20 -14 -35t-34 -15q-17 0 -36 13q-40 31 -77.5 44.5t-84.5 13.5q-90 0 -143.5 -51.5t-65.5 -149.5h274q24 0 38 -13t14 -36t-14 -37t-38 -14h-275
q10 -103 64 -157.5t146 -54.5q39 0 77 12.5t81 41.5q17 11 35 11q20 0 33.5 -14.5t13.5 -34.5q0 -32 -34 -56q-39 -29 -95 -47t-113 -18q-104 0 -181.5 44.5z" />
    <glyph glyph-name="uni0405" unicode="&#x405;" horiz-adv-x="638" 
d="M174.5 11.5q-68.5 20.5 -111.5 55.5q-23 17 -23 48q0 21 12.5 36.5t29.5 15.5q18 0 41 -14q43 -31 90 -45t104 -14q73 0 112 25.5t39 74.5q0 38 -36.5 58.5t-121.5 39.5q-88 19 -143 44t-83 64t-28 99q0 62 35 111t97.5 76.5t140.5 27.5q143 0 233 -76q13 -11 18.5 -21.5
t5.5 -26.5q0 -21 -12.5 -36.5t-29.5 -15.5q-10 0 -18.5 3t-22.5 11q-41 30 -79.5 44.5t-94.5 14.5q-68 0 -107.5 -27.5t-39.5 -76.5q0 -41 35 -63t119 -41q89 -20 144.5 -44.5t85 -62.5t29.5 -95q0 -62 -34.5 -109.5t-97 -74t-143.5 -26.5q-77 0 -145.5 20.5z" />
    <glyph glyph-name="uni0406" unicode="&#x406;" horiz-adv-x="281" 
d="M93.5 12q-17.5 18 -17.5 47v587q0 29 17.5 46.5t46.5 17.5q30 0 47.5 -17.5t17.5 -46.5v-587q0 -29 -17.5 -47t-47.5 -18q-29 0 -46.5 18z" />
    <glyph glyph-name="uni0407" unicode="&#x407;" horiz-adv-x="281" 
d="M93.5 12q-17.5 18 -17.5 47v587q0 29 17.5 46.5t46.5 17.5q30 0 47.5 -17.5t17.5 -46.5v-587q0 -29 -17.5 -47t-47.5 -18q-29 0 -46.5 18zM1 797.5q-18 17.5 -18 45.5t18 45t47 17t47.5 -17t18.5 -45t-18.5 -45.5t-47.5 -17.5t-47 17.5zM185 797.5q-18 17.5 -18 45.5
t18 45t47 17q28 0 46.5 -17t18.5 -45t-18 -45.5t-47 -17.5t-47 17.5z" />
    <glyph glyph-name="uni0408" unicode="&#x408;" horiz-adv-x="358" 
d="M-14 47q0 24 12.5 36.5t39.5 14.5l32 2q41 2 62 26t21 73v447q0 29 17.5 46.5t46.5 17.5q30 0 47.5 -17.5t17.5 -46.5v-447q0 -189 -187 -203l-32 -2q-77 -3 -77 53z" />
    <glyph glyph-name="uni0409" unicode="&#x409;" horiz-adv-x="1070" 
d="M81 -1q-23 0 -38.5 16t-15.5 38q0 17 10 33t30 28q41 22 65 66t35 120t11 195v149q0 29 16 45t45 16h351q29 0 45 -16t16 -45v-207h142q115 0 177 -54.5t62 -156.5q0 -105 -68.5 -165.5t-182.5 -60.5h-195q-29 0 -45 16t-16 45v541h-223v-86q0 -149 -19.5 -247.5
t-59 -159t-102.5 -98.5q-19 -12 -40 -12zM876 132.5q34 32.5 34 88.5q0 60 -33.5 88.5t-100.5 28.5h-125v-238h125q66 0 100 32.5z" />
    <glyph glyph-name="uni040A" unicode="&#x40a;" horiz-adv-x="1069" 
d="M93.5 12q-17.5 18 -17.5 46v589q0 28 17.5 46t45.5 18q29 0 46.5 -17.5t17.5 -46.5v-227h322v227q0 29 17.5 46.5t45.5 17.5t45.5 -17.5t17.5 -46.5v-227h144q115 0 175.5 -51t60.5 -151q0 -103 -67 -160.5t-182 -57.5h-196q-29 0 -45 16t-16 45v255h-322v-258
q0 -28 -17.5 -46t-46.5 -18q-28 0 -45.5 18zM876 130.5q33 30.5 33 85.5t-32 80t-99 25h-127v-221h127q65 0 98 30.5z" />
    <glyph glyph-name="uni040B" unicode="&#x40b;" horiz-adv-x="798" 
d="M229 11.5q-17 17.5 -17 46.5v541h-152q-27 0 -43.5 15t-16.5 38q0 24 16.5 38.5t43.5 14.5h463q26 0 42.5 -14.5t16.5 -38.5q0 -23 -16.5 -38t-42.5 -15h-185v-181q29 8 69.5 14.5t74.5 6.5q118 0 182.5 -52t64.5 -167v-162q0 -29 -17.5 -46.5t-45.5 -17.5
q-29 0 -46.5 17.5t-17.5 46.5v142q0 73 -35.5 105t-109.5 32q-67 0 -119 -18v-261q0 -29 -17.5 -46.5t-45.5 -17.5q-29 0 -46 17.5z" />
    <glyph glyph-name="uni040C" unicode="&#x40c;" horiz-adv-x="690" 
d="M93 11.5q-17 17.5 -17 47.5v588q0 29 17.5 46.5t45.5 17.5q29 0 46.5 -17.5t17.5 -46.5v-237h86l224 276q20 24 47 24q22 0 38.5 -16t16.5 -38q0 -21 -15 -39l-190 -231q36 -13 58.5 -30t41 -43t48.5 -78l81 -145q10 -17 10 -35q0 -25 -18.5 -42.5t-42.5 -17.5
q-33 0 -53 35l-102 182q-29 52 -58 73t-84 21h-88v-247q0 -29 -17.5 -47t-46.5 -18t-46 17.5zM344 760q-13 0 -22 8.5t-9 19.5t11 22l91 94q19 20 43 20q20 0 34.5 -14.5t14.5 -33.5q0 -13 -8.5 -25t-25.5 -21l-113 -66q-8 -4 -16 -4z" />
    <glyph glyph-name="uni040D" unicode="&#x40d;" horiz-adv-x="763" 
d="M578.5 702q16.5 9 46.5 9q29 0 45 -16.5t16 -45.5v-591q0 -29 -17.5 -46.5t-45.5 -17.5q-29 0 -46 17.5t-17 46.5v460l-335 -473q-21 -31 -40 -41t-48 -10t-45 16.5t-16 45.5v591q0 29 17.5 46.5t45.5 17.5q29 0 46.5 -17.5t17.5 -46.5v-459l344 484q15 21 31.5 30z
M218 877q0 19 14 33.5t34 14.5q23 0 44 -21l91 -94q10 -10 10 -22q0 -11 -8.5 -19.5t-21.5 -8.5q-9 0 -16 4l-113 66q-34 18 -34 47z" />
    <glyph glyph-name="uni040E" unicode="&#x40e;" horiz-adv-x="675" 
d="M552.5 701.5q14.5 8.5 30.5 8.5q23 0 41.5 -16.5t18.5 -40.5q0 -13 -8 -31l-301 -591q-18 -37 -53 -37q-24 0 -42.5 17.5t-18.5 41.5q0 15 7 29l67 131l-249 406q-11 17 -11 36q0 23 17.5 39.5t40.5 16.5q15 0 28.5 -8t22.5 -24l212 -346l174 342q9 18 23.5 26.5z
M218.5 801.5q-51.5 29.5 -73.5 81.5q-4 9 -4 20q0 19 12.5 30.5t29.5 11.5q26 0 40 -26q37 -72 115 -72t115 72q14 27 40 27q17 0 30 -12t13 -30q-2 -14 -5 -22q-21 -51 -73 -80.5t-120 -29.5t-119.5 29.5z" />
    <glyph glyph-name="uni040F" unicode="&#x40f;" horiz-adv-x="758" 
d="M336 -174q-16 17 -16 46v128h-183q-29 0 -45 16t-16 45v586q0 29 17.5 46.5t45.5 17.5q29 0 46.5 -17.5t17.5 -46.5v-544h353v544q0 29 17.5 46.5t45.5 17.5q29 0 46 -17.5t17 -46.5v-586q0 -29 -16 -45t-45 -16h-182v-128q0 -28 -16.5 -45.5t-43.5 -17.5t-43 17z" />
    </font>
</defs>
</svg>
